\m/ 80's metal \m/

Информационно-аналитический форум "80 см пыли" (In Search We Trust) "У нас никто никуда не спешит"
Me For You - http://me-4u.com
It is currently 20 May 2019

All times are UTC + 3 hours

Spoiler
Chat - temporary registration for foreign users (please leave your application here)







Post new topic Reply to topic  [ 67 posts ]  Go to page Previous  1, 2, 3, 4
Author Message
 
PostPosted: 14 Nov 2011 
Хиппей (support team)
User avatar
Joined: 30 Jul 2007
Posts: 112583
Lоcаtion: Киев (Kyiv, UA)
Age: 45
Name: Andrey
Darxon - 1984 - Killed In Action [flac]

Attachment:
front.jpg
front.jpg [ 1.53 MiB | Viewed 223 times ]

Attachment:
back.jpg
back.jpg [ 1.35 MiB | Viewed 214 times ]


Genre: Heavy Metal
Location: Germany
Format: flac+cue+covers
Size: 277 Mb


Line-up:
Massimo de Matteis - Vocals
Peter Schmidt - Bass
Dominik Hülshorst - Drums
Markus Szart - Guitars

    1. Danger Love! - 03:39
    2. Smile Of A Tiger - 03:19
    3. It's An Illusion - 03:45
    4. Body Talking - 04:14
    5. Fool Tonight - 03:25
    6. Killed In Action - 04:12
    7. Rock On - 03:50
    8. Simile Of Evil - 03:34
    9. Burning - 02:26
    10. Holy Macho - 03:08
    11. Stormbringer - 05:05

    TPT: 39:47

Из личного архива Nikita Mikhalkov Prods.

Да так себе альбомчик. Чуть выше среднего Heavy Metal :vic:

6/10

MultiUp l Narod

cue
REM ACCURATERIPID 00104b9c-008d26f9-8809580b
REM GENRE "Heavy Metal"
REM DATE 1984
REM COMMENT "CUETools v1.9.3"
PERFORMER "Darxon"
TITLE "Killed In Action"
FILE "Darxon - Killed In Action.flac" WAVE
TRACK 01 AUDIO
TITLE "Danger Love!"
PERFORMER "Darxon"
INDEX 01 00:00:00
TRACK 02 AUDIO
TITLE "Smile Of A Tiger"
PERFORMER "Darxon"
INDEX 01 03:34:00
TRACK 03 AUDIO
TITLE "It's An Illusion"
PERFORMER "Darxon"
INDEX 01 06:48:63
TRACK 04 AUDIO
TITLE "Body Talking"
PERFORMER "Darxon"
INDEX 01 10:29:63
TRACK 05 AUDIO
TITLE "Fool Tonight"
PERFORMER "Darxon"
INDEX 01 14:40:26
TRACK 06 AUDIO
TITLE "Killed In Action"
PERFORMER "Darxon"
INDEX 01 17:58:72
TRACK 07 AUDIO
TITLE "Rock On"
PERFORMER "Darxon"
INDEX 01 22:07:59
TRACK 08 AUDIO
TITLE "Simile Of Evil"
PERFORMER "Darxon"
INDEX 01 25:53:37
TRACK 09 AUDIO
TITLE "Burning"
PERFORMER "Darxon"
INDEX 01 29:22:04
TRACK 10 AUDIO
TITLE "Holy Macho"
PERFORMER "Darxon"
INDEX 01 31:43:39
TRACK 11 AUDIO
TITLE "Stormbringer"
PERFORMER "Darxon"
INDEX 01 34:47:64


spectrum
Attachment:
spectrum.jpg
spectrum.jpg [ 328.35 KiB | Viewed 216 times ]


Особая благодарность за правку лося и рипа - Сергею (sorog) и Олегу (spiralarch) :thanx: :thanx:

_________________


Top
 Profile E-mail  
 
 
PostPosted: 21 Nov 2011 
Хиппей (support team)
User avatar
Joined: 30 Jul 2007
Posts: 112583
Lоcаtion: Киев (Kyiv, UA)
Age: 45
Name: Andrey
Ok :dance:

_________________


Top
 Profile E-mail  
 
 
PostPosted: 23 Nov 2011 
Хиппей (support team)
User avatar
Joined: 30 Jul 2007
Posts: 112583
Lоcаtion: Киев (Kyiv, UA)
Age: 45
Name: Andrey
В первом сообщении обновлены ссылки. И сами файлы исправлены.
Просьба перекачать
:pardon:


Статистика скачиваний за 9 дней:

Attachment:
country.png
country.png [ 10.15 KiB | Viewed 698 times ]

Attachment:
multiup.png
multiup.png [ 1.96 KiB | Viewed 701 times ]

Attachment:
narod.jpg
narod.jpg [ 15.28 KiB | Viewed 159 times ]

_________________


Top
 Profile E-mail  
 
 
PostPosted: 23 Nov 2011 
хард н хэвщик (support team)
User avatar
Joined: 02 Jun 2008
Posts: 16881
Lоcаtion: Н.Новгород
Age: 32
Name: Артем
Scatterbrain wrote:
Attachment:
country.png


дружба народов :umnik:


Top
 Profile  
 
 
PostPosted: 23 Nov 2011 
5cm
User avatar
Joined: 05 May 2009
Posts: 52
Lоcаtion: Kherson
Age: 47
Name: Oleg
Огромное спасиб! Группа которую слушал в отрочестве. Тот кто не заценил их в те годы , такой кайф уже не выхватит.


Top
 Profile E-mail  
 
 
PostPosted: 02 Dec 2011 
Рарник и трушник
User avatar
Joined: 25 Dec 2009
Posts: 8613
Lоcаtion: Москва
Age: 53
Name: Виталий
Получше.


Top
 Profile  
 
 
PostPosted: 02 Dec 2011 
Хиппей (support team)
User avatar
Joined: 30 Jul 2007
Posts: 112583
Lоcаtion: Киев (Kyiv, UA)
Age: 45
Name: Andrey
Не так растянуты фотки участников? =)

_________________


Top
 Profile E-mail  
 
 
PostPosted: 23 Jul 2012 
Труъ
User avatar
Joined: 05 Oct 2008
Posts: 194
Lоcаtion: Saint Petersburg
Age: 45
Name: Jesse
Ого! Хоть по музыке и не супер айс, но раритет! Огромнейшее спасибо парни!


Top
 Profile  
 
Display posts from previous:  Sort by  
Post new topic Reply to topic  [ 67 posts ]  Go to page Previous  1, 2, 3, 4

All times are UTC + 3 hours


Who is online

Users browsing this forum: No registered users and 1 guest


You cannot post new topics in this forum
You cannot reply to topics in this forum
You cannot edit your posts in this forum
You cannot delete your posts in this forum
You cannot post attachments in this forum

Search for:
Яндекс.Метрика
Powered by phpBB © 2000, 2002, 2005, 2007 phpBB Group