\m/ 80's metal \m/

Информационно-аналитический форум "80 см пыли" (In Search We Trust) "У нас никто никуда не спешит"
Me For You - http://me-4u.com
It is currently 25 Aug 2019

All times are UTC + 3 hours

Spoiler
Chat - temporary registration for foreign users (please leave your application here)







Post new topic Reply to topic  [ 5 posts ] 
Author Message
 
PostPosted: 06 Nov 2011 
Пионэръ
User avatar
Joined: 15 Mar 2011
Posts: 17
Lоcаtion: Spain
Name: Tuco Pacífico
Esto, esto si que es Heavy de verdad, para hombres de pelo en pecho.Doom clásico a lo Black Sabbath, Pentagram y rollo setentero duro en plan Blue Cheer o Sir Lord Baltimore...
Image

Band: Devil
Album: Time to Repent
Year: 2011
Country: Norway
Genre: Doom Metal
Format: CDRip(FLAC + CUE + LOG + Covers)
Length: 35:24 min
Size: 280 mb
Release: by Tuco Pacífico[EsparaelMetal]

Image

Image

Tracklist:

1. Intro / The Welcome
2. Break the Curse
3. Blood Is Boiling
4. Time to Repent
5. Crazy Woman
6. Open Casket
7. Death of a Sorcerer
8. Howling (At the World)
9. At the Blacksmith's
10. Outro

Скачать:
MULTILINK

LOG
Code:
Exact Audio Copy V1.0 beta 1 from 15. November 2010

EAC extraction logfile from 6. November 2011, 9:59

DEVIL / Time To Repent

Used drive  : TSSTcorpCDDVDW SE-S084F   Adapter: 3  ID: 0

Read mode               : Secure
Utilize accurate stream : Yes
Defeat audio cache      : Yes
Make use of C2 pointers : No

Read offset correction                      : 6
Overread into Lead-In and Lead-Out          : No
Fill up missing offset samples with silence : Yes
Delete leading and trailing silent blocks   : No
Null samples used in CRC calculations       : Yes
Used interface                    : Native Win32 interface for Win NT & 2000

Used output format : Internal WAV Routines
Sample format      : 44.100 Hz; 16 Bit; Stereo

TOC of the extracted CD

       Track |   Start  |  Length  | Start sector | End sector   
      ---------------------------------------------------------
          1  |  0:00.00 |  1:05.52 |         0    |     4926     
          2  |  1:05.52 |  3:18.48 |      4927    |    19824     
          3  |  4:24.25 |  4:18.70 |     19825    |    39244     
          4  |  8:43.20 |  6:00.30 |     39245    |    66274     
          5  | 14:43.50 |  2:34.43 |     66275    |    77867     
          6  | 17:18.18 |  2:40.42 |     77868    |    89909     
          7  | 19:58.60 |  4:53.60 |     89910    |   111944     
          8  | 24:52.45 |  4:02.50 |    111945    |   130144     
          9  | 28:55.20 |  5:11.39 |    130145    |   153508     
         10  | 34:06.59 |  1:17.11 |    153509    |   159294     

Range status and errors

Selected range

       Filename D:\Devil\DEVIL - Time To Repent.wav

       Peak level 81.2 %
       Extraction speed 0.0 X
       Range quality 100.0 %
       Test CRC 8BDCCF5A
       Copy CRC 8BDCCF5A
       Copy OK

No errors occurred

     
AccurateRip summary
     
Track  1  not present in database
Track  2  not present in database
Track  3  not present in database
Track  4  not present in database
Track  5  not present in database
Track  6  not present in database
Track  7  not present in database
Track  8  not present in database
Track  9  not present in database
Track 10  not present in database
     
None of the tracks are present in the AccurateRip database

End of status report



Top
 Profile E-mail  
 
 
PostPosted: 06 Nov 2011 
Хиппей (support team)
User avatar
Joined: 30 Jul 2007
Posts: 114093
Lоcаtion: Киев (Kyiv, UA)
Age: 46
Name: Andrey
Tuco Pacífico wrote:
Genre: Doom Metal

:thanx:

mirror: Narod

_________________


Top
 Profile E-mail  
 
 
PostPosted: 06 Nov 2011 
труъ антисионист
User avatar
Joined: 01 Aug 2007
Posts: 4544
Lоcаtion: Откуда и большинство из нас
Age: 38
Name: Дядя Вова
Кстати вроде не плохой музон :meloman:

phpBB [youtube]

_________________
Image
Image


Top
 Profile  
 
 
PostPosted: 06 Nov 2011 
Доктор энтомологии
User avatar
Joined: 22 Jan 2009
Posts: 9851
Lоcаtion: Даугавпилс
Age: 44
Name: Алексей
Ага, занятная группко. Люблю такую сайнтвитусовщину :true: Обложка трушная, на портачок просится ;)


Top
 Profile  
 
 
PostPosted: 06 Nov 2011 
А может смените мне статус?..
User avatar
Joined: 06 Sep 2007
Posts: 825
Lоcаtion: СПб
Age: 64
Name: Сергей
Thanx Tuco Pacífico


Top
 Profile  
 
Display posts from previous:  Sort by  
Post new topic Reply to topic  [ 5 posts ] 

All times are UTC + 3 hours


Who is online

Users browsing this forum: No registered users and 1 guest


You cannot post new topics in this forum
You cannot reply to topics in this forum
You cannot edit your posts in this forum
You cannot delete your posts in this forum
You cannot post attachments in this forum

Search for:
Яндекс.Метрика
Powered by phpBB © 2000, 2002, 2005, 2007 phpBB Group