\m/ 80's metal \m/

Информационно-аналитический форум "80 см пыли" (In Search We Trust) "У нас никто никуда не спешит"
Me For You - http://me-4u.com
It is currently 15 Jul 2019

All times are UTC + 3 hours

Spoiler
Chat - temporary registration for foreign users (please leave your application here)







Post new topic Reply to topic  [ 6 posts ] 
Author Message
 
PostPosted: 09 Oct 2011 
Работнечег
User avatar
Joined: 28 Aug 2007
Posts: 5912
Lоcаtion: г. Москва
Age: 30
Name: Дима
Attachment:
front.jpg
front.jpg [ 856.12 KiB | Viewed 125 times ]

Band: Dreamland
Album: Dreamland
Label: Self-released
Genre: Melodic Rock
Country: USA
Format: Flac + Log + Cue + Covers/MP3@320 kbps + Covers
Size: 296 Mb/ 101 Mb

Line-Up:
Nathan Trujillo - Vocals, Acoustic Guitar
Scott Ellman - Guitars, Vocals
Jill Guido - Bass, Vocals
Wolf - Drums and Percussion


Tracklist:
1. Dreamland 03:44
2. Going Nowhere 02:47
3. American Dream 03:19
4. In The Middle Of The Night 04:03
5. Need Another Friend 03:02
6. Rain Soaked Streets 03:04
7. Walls Of Stone 03:17
8. Getting Older 02:43
9. Falling Apart 02:28
10. Under The Gun 03:07
11. Like A Fool 03:59
12. Don't Go Trashing My Art 04:30

LOG
Exact Audio Copy V0.99 prebeta 5 from 4. May 2009

EAC extraction logfile from 9. October 2011, 13:50

Dreamland / Dreamland

Used drive : PIONEER DVD-RW DVR-116D Adapter: 0 ID: 0

Read mode : Secure
Utilize accurate stream : Yes
Defeat audio cache : Yes
Make use of C2 pointers : No

Read offset correction : 96
Overread into Lead-In and Lead-Out : No
Fill up missing offset samples with silence : Yes
Delete leading and trailing silent blocks : No
Null samples used in CRC calculations : Yes
Used interface : Native Win32 interface for Win NT & 2000

Used output format : User Defined Encoder
Selected bitrate : 32 kBit/s
Quality : High
Add ID3 tag : No
Command line compressor : C:\Program Files\Exact Audio Copy\Flac\flac.exe
Additional command line options : -6 -V %s


TOC of the extracted CD

Track | Start | Length | Start sector | End sector
---------------------------------------------------------
1 | 0:00.00 | 3:46.43 | 0 | 16992
2 | 3:46.43 | 2:49.65 | 16993 | 29732
3 | 6:36.33 | 3:21.20 | 29733 | 44827
4 | 9:57.53 | 4:04.52 | 44828 | 63179
5 | 14:02.30 | 3:03.73 | 63180 | 76977
6 | 17:06.28 | 3:06.57 | 76978 | 90984
7 | 20:13.10 | 3:19.28 | 90985 | 105937
8 | 23:32.38 | 2:44.72 | 105938 | 118309
9 | 26:17.35 | 2:40.10 | 118310 | 130319
10 | 28:57.45 | 3:09.35 | 130320 | 144529
11 | 32:07.05 | 4:00.60 | 144530 | 162589
12 | 36:07.65 | 4:30.56 | 162590 | 182895


Range status and errors

Selected range

Filename D:\Музыка\Lossless\Dreamland - Dreamland (1996)\Dreamland - Dreamland.wav

Peak level 99.6 %
Range quality 100.0 %
Copy CRC 0D525778
Copy OK

No errors occurred


AccurateRip summary

Track 1 not present in database
Track 2 not present in database
Track 3 not present in database
Track 4 not present in database
Track 5 not present in database
Track 6 not present in database
Track 7 not present in database
Track 8 not present in database
Track 9 not present in database
Track 10 not present in database
Track 11 not present in database
Track 12 not present in database

None of the tracks are present in the AccurateRip database

End of status report

CUE
REM GENRE "Heavy Metal"
REM DATE 1996
REM DISCID B809860C
REM COMMENT "ExactAudioCopy v0.99pb5"
PERFORMER "Dreamland"
TITLE "Dreamland"
FILE "Dreamland - Dreamland.flac" WAVE
TRACK 01 AUDIO
TITLE "Dreamland"
PERFORMER "Dreamland"
FLAGS DCP
INDEX 01 00:00:00
TRACK 02 AUDIO
TITLE "Going Nowhere"
PERFORMER "Dreamland"
FLAGS DCP
INDEX 01 03:46:43
TRACK 03 AUDIO
TITLE "American Dream"
PERFORMER "Dreamland"
FLAGS DCP
INDEX 01 06:36:33
TRACK 04 AUDIO
TITLE "In The Middle Of The Night"
PERFORMER "Dreamland"
FLAGS DCP
INDEX 01 09:57:53
TRACK 05 AUDIO
TITLE "Need Another Friend"
PERFORMER "Dreamland"
FLAGS DCP
INDEX 01 14:02:30
TRACK 06 AUDIO
TITLE "Rain Soaked Streets"
PERFORMER "Dreamland"
FLAGS DCP
INDEX 01 17:06:28
TRACK 07 AUDIO
TITLE "Walls Of Stone"
PERFORMER "Dreamland"
FLAGS DCP
INDEX 01 20:13:10
TRACK 08 AUDIO
TITLE "Getting Older"
PERFORMER "Dreamland"
FLAGS DCP
INDEX 01 23:32:38
TRACK 09 AUDIO
TITLE "Falling Apart"
PERFORMER "Dreamland"
FLAGS DCP
INDEX 01 26:17:35
TRACK 10 AUDIO
TITLE "Under The Gun"
PERFORMER "Dreamland"
FLAGS DCP
INDEX 01 28:57:45
TRACK 11 AUDIO
TITLE "Like A Fool"
PERFORMER "Dreamland"
FLAGS DCP
INDEX 01 32:07:05
TRACK 12 AUDIO
TITLE "Don't Go Trashing My Art"
PERFORMER "Dreamland"
FLAGS DCP
INDEX 01 36:07:65

Spectrum
Attachment:
ScreenHunter_02 Oct. 09 23.05.jpg
ScreenHunter_02 Oct. 09 23.05.jpg [ 213.51 KiB | Viewed 132 times ]


FLAC
MP3@320

За предоставленный диск спасибо огромное Саше spryt. Мне понравился альбом, особенно Going Nowhere, настояший хит :true:


Top
 Profile E-mail  
 
 
PostPosted: 09 Oct 2011 
А может смените мне статус?..
User avatar
Joined: 06 Sep 2007
Posts: 822
Lоcаtion: СПб
Age: 64
Name: Сергей
Дима спасибо за mp3


Top
 Profile  
 
 
PostPosted: 10 Oct 2011 
Хиппей (support team)
User avatar
Joined: 30 Jul 2007
Posts: 113487
Lоcаtion: Киев (Kyiv, UA)
Age: 46
Name: Andrey
:thanx: :thanx:

mirror: MultiUp l Narod

_________________


Top
 Profile E-mail  
 
 
PostPosted: 10 Oct 2011 
хард н хэвщик (support team)
User avatar
Joined: 02 Jun 2008
Posts: 16881
Lоcаtion: Н.Новгород
Age: 32
Name: Артем
огромное спасибо !!!! :true: :thanx: :true: :true:


Top
 Profile  
 
 
PostPosted: 19 Oct 2011 
А может смените мне статус?..
User avatar
Joined: 04 Jun 2009
Posts: 681
Lоcаtion: Москва
Age: 29
Name: Дмитрий
спасибо, послушаю :thanx:


Top
 Profile E-mail  
 
 
PostPosted: 19 Oct 2011 
Я набрал 1000 сообщений!
Joined: 24 Oct 2009
Posts: 2233
Lоcаtion: Оренбург
Age: 55
Name: Юра
Димыч Спасибо! :good:

_________________
:dash: I am happy!


Top
 Profile E-mail  
 
Display posts from previous:  Sort by  
Post new topic Reply to topic  [ 6 posts ] 

All times are UTC + 3 hours


Who is online

Users browsing this forum: No registered users and 1 guest


You cannot post new topics in this forum
You cannot reply to topics in this forum
You cannot edit your posts in this forum
You cannot delete your posts in this forum
You cannot post attachments in this forum

Search for:
Яндекс.Метрика
Powered by phpBB © 2000, 2002, 2005, 2007 phpBB Group