\m/ 80's metal \m/

Информационно-аналитический форум "80 см пыли" (In Search We Trust) "У нас никто никуда не спешит"
Me For You - http://me-4u.com
It is currently 25 May 2019

All times are UTC + 3 hours

Spoiler
Chat - temporary registration for foreign users (please leave your application here)







Post new topic Reply to topic  [ 7 posts ] 
Author Message
 
PostPosted: 04 Oct 2011 
Хиппей (support team)
User avatar
Joined: 30 Jul 2007
Posts: 112772
Lоcаtion: Киев (Kyiv, UA)
Age: 45
Name: Andrey
Drifter - 1988 - Reality Turns to Dust [flac]

Image

Image

Image

Image

Image

Image

Image

Genre: Power Heavy Metal
Location: Switzerland
Format: flac(tracks)+cue+log+scans
Size: 273 Mb


Line-up:

Ivano Marcon - Guitars
Peter Wolff - Guitars
Tommy Lion - Vocals
Sven Rosemann - Bass
Guido Kirschke - Drums

1. Dust to Dust - 00:35
2. Reality Turns to Dust - 06:03
3. Crime of a Lifetime - 04:24
4. Spiritual Diary of Oppression - 04:55
5. No Fear of the Future - 05:05
6. Senseless Death - 04:18
7. Burning Circles - 04:14
8. Highlander - 03:55
9. Banners On the Battlefield - 06:54
10. La Bamba - 00:48

TPT: 41:11

M-Cloud l Narod l Yadi

log
Exact Audio Copy V0.99 prebeta 5 from 4. May 2009

EAC extraction logfile from 24. January 2011, 18:15

Drifter / Reality Turns to Dust

Used drive : PLEXTOR CD-R PX-W8432T Adapter: 1 ID: 0

Read mode : Burst

Read offset correction : 355
Overread into Lead-In and Lead-Out : No
Fill up missing offset samples with silence : Yes
Delete leading and trailing silent blocks : No
Null samples used in CRC calculations : Yes
Used interface : Installed external ASPI interface
Gap handling : Appended to previous track

Used output format : User Defined Encoder
Selected bitrate : 192 kBit/s
Quality : Low
Add ID3 tag : No
Command line compressor : E:\Programme\Audio\bin\flac.exe
Additional command line options : -5 -V -T "artist=%a" -T "title=%t" -T "album=%g" -T "date=%y" -T "tracknumber=%n" -T "genre=%m" -T comment="%e" -T "comment=EAC (Secure Mode)" %s


TOC of the extracted CD

Track | Start | Length | Start sector | End sector
---------------------------------------------------------
1 | 0:00.32 | 0:35.25 | 32 | 2681
2 | 0:35.57 | 6:03.38 | 2682 | 29944
3 | 6:39.20 | 4:24.10 | 29945 | 49754
4 | 11:03.30 | 4:55.25 | 49755 | 71904
5 | 15:58.55 | 5:04.55 | 71905 | 94759
6 | 21:03.35 | 4:17.60 | 94760 | 114094
7 | 25:21.20 | 4:13.70 | 114095 | 133139
8 | 29:35.15 | 3:55.10 | 133140 | 150774
9 | 33:30.25 | 6:53.47 | 150775 | 181796
10 | 40:23.72 | 0:48.05 | 181797 | 185401


Track 1

Filename L:\EAC\Drifter [1988] Reality Turns to Dust\01 Dust to Dust.wav

Pre-gap length 0:00:02.32

Peak level 71.8 %
Copy CRC 8A03A1B7
Accurately ripped (confidence 4) [FD93BBD6]
Copy OK

Track 2

Filename L:\EAC\Drifter [1988] Reality Turns to Dust\02 Reality Turns to Dust.wav

Peak level 94.1 %
Copy CRC 275CB245
Accurately ripped (confidence 4) [E962D204]
Copy OK

Track 3

Filename L:\EAC\Drifter [1988] Reality Turns to Dust\03 Crime of a Lifetime.wav

Pre-gap length 0:00:01.50

Peak level 94.1 %
Copy CRC 9E63CBAB
Accurately ripped (confidence 4) [0C8B804D]
Copy OK

Track 4

Filename L:\EAC\Drifter [1988] Reality Turns to Dust\04 Spiritual Diary of Oppression.wav

Pre-gap length 0:00:01.63

Peak level 88.8 %
Copy CRC CC8FEFEF
Accurately ripped (confidence 4) [46479B19]
Copy OK

Track 5

Filename L:\EAC\Drifter [1988] Reality Turns to Dust\05 No Fear of the Future.wav

Pre-gap length 0:00:02.38

Peak level 90.6 %
Copy CRC D265F8BE
Accurately ripped (confidence 4) [A1B1622C]
Copy OK

Track 6

Filename L:\EAC\Drifter [1988] Reality Turns to Dust\06 Senseless Death.wav

Pre-gap length 0:00:01.58

Peak level 86.3 %
Copy CRC 9BE6BED3
Accurately ripped (confidence 4) [26C1931C]
Copy OK

Track 7

Filename L:\EAC\Drifter [1988] Reality Turns to Dust\07 Burning Circles.wav

Pre-gap length 0:00:01.25

Peak level 79.9 %
Copy CRC 9E67E2E2
Accurately ripped (confidence 4) [CA5EA562]
Copy OK

Track 8

Filename L:\EAC\Drifter [1988] Reality Turns to Dust\08 Highlander.wav

Pre-gap length 0:00:02.08

Peak level 95.5 %
Copy CRC 226B1307
Accurately ripped (confidence 4) [AECF4200]
Copy OK

Track 9

Filename L:\EAC\Drifter [1988] Reality Turns to Dust\09 Banners On the Battlefield.wav

Pre-gap length 0:00:00.43

Peak level 87.2 %
Copy CRC C7231EB7
Accurately ripped (confidence 4) [BC8039B0]
Copy OK

Track 10

Filename L:\EAC\Drifter [1988] Reality Turns to Dust\10 La Bamba.wav

Peak level 76.9 %
Copy CRC 7716E873
Accurately ripped (confidence 4) [D33B3F4D]
Copy OK


All tracks accurately ripped

No errors occurred

End of status report


cue
REM GENRE "Thrash Metal"
REM DATE 1988
REM DISCID 7209A80A
REM COMMENT "ExactAudioCopy v0.99pb5"
CATALOG 0000000000000
PERFORMER "Drifter"
TITLE "Reality Turns to Dust"
FILE "01 Dust to Dust.wav" WAVE
TRACK 01 AUDIO
TITLE "Dust to Dust"
PERFORMER "Drifter"
PREGAP 00:00:32
INDEX 01 00:00:00
FILE "02 Reality Turns to Dust.wav" WAVE
TRACK 02 AUDIO
TITLE "Reality Turns to Dust"
PERFORMER "Drifter"
INDEX 01 00:00:00
TRACK 03 AUDIO
TITLE "Crime of a Lifetime"
PERFORMER "Drifter"
INDEX 00 06:01:63
FILE "03 Crime of a Lifetime.wav" WAVE
INDEX 01 00:00:00
TRACK 04 AUDIO
TITLE "Spiritual Diary of Oppression"
PERFORMER "Drifter"
INDEX 00 04:22:22
FILE "04 Spiritual Diary of Oppression.wav" WAVE
INDEX 01 00:00:00
TRACK 05 AUDIO
TITLE "No Fear of the Future"
PERFORMER "Drifter"
INDEX 00 04:52:62
FILE "05 No Fear of the Future.wav" WAVE
INDEX 01 00:00:00
TRACK 06 AUDIO
TITLE "Senseless Death"
PERFORMER "Drifter"
INDEX 00 05:02:72
FILE "06 Senseless Death.wav" WAVE
INDEX 01 00:00:00
TRACK 07 AUDIO
TITLE "Burning Circles"
PERFORMER "Drifter"
INDEX 00 04:16:35
FILE "07 Burning Circles.wav" WAVE
INDEX 01 00:00:00
TRACK 08 AUDIO
TITLE "Highlander"
PERFORMER "Drifter"
INDEX 00 04:11:62
FILE "08 Highlander.wav" WAVE
INDEX 01 00:00:00
TRACK 09 AUDIO
TITLE "Banners On the Battlefield"
PERFORMER "Drifter"
INDEX 00 03:54:42
FILE "09 Banners On the Battlefield.wav" WAVE
INDEX 01 00:00:00
FILE "10 La Bamba.wav" WAVE
TRACK 10 AUDIO
TITLE "La Bamba"
PERFORMER "Drifter"
INDEX 01 00:00:00


spectre
Image


Thanx to Buzz Lightyear from MMT :thanx:

_________________


Top
 Profile E-mail  
 
 
PostPosted: 04 Oct 2011 
Я набрал 1000 сообщений!
Joined: 12 Dec 2008
Posts: 1060
Lоcаtion: BULGARIA
Age: 40
Name: DIMITЪR
Прекрасно оформление , браво :true: :true:


Top
 Profile  
 
 
PostPosted: 04 Oct 2011 
Хиппей (support team)
User avatar
Joined: 30 Jul 2007
Posts: 112772
Lоcаtion: Киев (Kyiv, UA)
Age: 45
Name: Andrey
Сейчас доофорилю. Я думал, все уже спят :crazy:

_________________


Top
 Profile E-mail  
 
 
PostPosted: 04 Oct 2011 
Я набрал 1000 сообщений!
Joined: 12 Dec 2008
Posts: 1060
Lоcаtion: BULGARIA
Age: 40
Name: DIMITЪR
Scatterbrain wrote:
доофорилю :crazy:


Такая дума нету :vic:


Top
 Profile  
 
 
PostPosted: 04 Oct 2011 
Хиппей (support team)
User avatar
Joined: 30 Jul 2007
Posts: 112772
Lоcаtion: Киев (Kyiv, UA)
Age: 45
Name: Andrey
Не-а, дума здесь точно нету :crazy:

_________________


Top
 Profile E-mail  
 
 
PostPosted: 04 Oct 2011 
спирт 100%
User avatar
Joined: 22 Sep 2008
Posts: 4415
Age: 47
Name: Саня
:thanx: СПАСИБО!


Top
 Profile  
 
 
PostPosted: 15 Jul 2014 
Хиппей (support team)
User avatar
Joined: 30 Jul 2007
Posts: 112772
Lоcаtion: Киев (Kyiv, UA)
Age: 45
Name: Andrey
И еще несколько раз переслушал альбом. Не-а, фигня всё же. Сыровата еще музыка и нудновата :(

_________________


Top
 Profile E-mail  
 
Display posts from previous:  Sort by  
Post new topic Reply to topic  [ 7 posts ] 

All times are UTC + 3 hours


Who is online

Users browsing this forum: No registered users and 1 guest


You cannot post new topics in this forum
You cannot reply to topics in this forum
You cannot edit your posts in this forum
You cannot delete your posts in this forum
You cannot post attachments in this forum

Search for:
Яндекс.Метрика
Powered by phpBB © 2000, 2002, 2005, 2007 phpBB Group