\m/ 80's metal \m/

Информационно-аналитический форум "80 см пыли" (In Search We Trust) "У нас никто никуда не спешит"
Me For You - http://me-4u.com
It is currently 28 Jan 2021

All times are UTC + 3 hours

Spoiler
Chat - temporary registration for foreign users (please leave your application here)







Post new topic Reply to topic  [ 7 posts ] 
Author Message
 
PostPosted: 05 Jul 2011 
Работнечег
User avatar
Joined: 28 Aug 2007
Posts: 6363
Lоcаtion: г. Москва
Age: 31
Name: Дима
Image

Band: Contradiction
Album: Rules Of Peace
Year: 1993
Label: Contradiction
Genre: Thrash Metal
Coutry: Germany
Format: Flac + Log + Cue + Covers
Size: 450 Mb

Line-Up:
Oliver Kämper - Guitars
Oliver Lux - Vocals, Guitars
Lars Fischbach - Bass
Kai "Lappen" Fischer - Drums


Tracklist:
1. Lie 03:43
2. Chains of Misery 04:17
3. Change Your Mind 05:22
4. Kingdom of the Damned 05:41
5. Submissive Servant 05:08
6. So What!? 05:05
7. Trilogy of Darkness Part 1 05:07
8. Trilogy of Darkness Part 2 04:56
9. Trilogy of Darkness Part 3 05:11
10. Despising the Rules of Peace 04:11
11. Nuclear Disaster 05:47
12. Pray for Me 06:04
13. The Hunter 07:15

LOG
Exact Audio Copy V0.99 prebeta 5 from 4. May 2009

EAC extraction logfile from 3. July 2011, 14:20

Contradiction / Rules Of Peace

Used drive : PIONEER DVD-RW DVR-116D Adapter: 0 ID: 0

Read mode : Secure
Utilize accurate stream : Yes
Defeat audio cache : Yes
Make use of C2 pointers : No

Read offset correction : 96
Overread into Lead-In and Lead-Out : No
Fill up missing offset samples with silence : Yes
Delete leading and trailing silent blocks : No
Null samples used in CRC calculations : Yes
Used interface : Native Win32 interface for Win NT & 2000

Used output format : User Defined Encoder
Selected bitrate : 32 kBit/s
Quality : High
Add ID3 tag : No
Command line compressor : C:\Program Files\Exact Audio Copy\Flac\flac.exe
Additional command line options : -6 -V %s


TOC of the extracted CD

Track | Start | Length | Start sector | End sector
---------------------------------------------------------
1 | 0:00.38 | 3:43.32 | 38 | 16794
2 | 3:43.70 | 4:17.08 | 16795 | 36077
3 | 8:01.03 | 5:22.02 | 36078 | 60229
4 | 13:23.05 | 5:40.68 | 60230 | 85797
5 | 19:03.73 | 5:07.57 | 85798 | 108879
6 | 24:11.55 | 5:04.60 | 108880 | 131739
7 | 29:16.40 | 5:06.53 | 131740 | 154742
8 | 34:23.18 | 4:56.25 | 154743 | 176967
9 | 39:19.43 | 5:11.37 | 176968 | 200329
10 | 44:31.05 | 4:11.03 | 200330 | 219157
11 | 48:42.08 | 5:46.57 | 219158 | 245164
12 | 54:28.65 | 6:03.63 | 245165 | 272452
13 | 60:32.53 | 7:15.42 | 272453 | 305119


Range status and errors

Selected range

Filename D:\Музыка\Lossless\Contradiction-1993\Contradiction - Rules Of Peace.wav

Peak level 100.0 %
Range quality 100.0 %
Copy CRC D4026A0C
Copy OK

No errors occurred


AccurateRip summary

Track 1 cannot be verified as accurate (confidence 1) [A20EC84A], AccurateRip returned [FFE6B1E5]
Track 2 cannot be verified as accurate (confidence 1) [852A23AC], AccurateRip returned [1D6E0FDF]
Track 3 cannot be verified as accurate (confidence 1) [7F3D51B1], AccurateRip returned [381F697A]
Track 4 cannot be verified as accurate (confidence 1) [097AFD19], AccurateRip returned [6E734E6E]
Track 5 cannot be verified as accurate (confidence 1) [430CFF9D], AccurateRip returned [DE793412]
Track 6 cannot be verified as accurate (confidence 1) [EC990A0D], AccurateRip returned [B976A184]
Track 7 cannot be verified as accurate (confidence 1) [69469EE9], AccurateRip returned [84AE59B3]
Track 8 cannot be verified as accurate (confidence 1) [A268CE9D], AccurateRip returned [C98EFACE]
Track 9 cannot be verified as accurate (confidence 1) [EB44182C], AccurateRip returned [3E6AB062]
Track 10 cannot be verified as accurate (confidence 1) [1452AB6C], AccurateRip returned [2B50539E]
Track 11 cannot be verified as accurate (confidence 1) [75AF1E82], AccurateRip returned [784B30A7]
Track 12 cannot be verified as accurate (confidence 1) [6EA0AC70], AccurateRip returned [F7636F5C]
Track 13 cannot be verified as accurate (confidence 1) [1E316617], AccurateRip returned [85EA35DA]

No tracks could be verified as accurate
You may have a different pressing from the one(s) in the database

End of status report

CUE
REM GENRE "Thrash Metal"
REM DATE 1993
REM DISCID AC0FE40D
REM COMMENT "ExactAudioCopy v0.99pb5"
PERFORMER "Contradiction"
TITLE "Rules Of Peace"
FILE "Contradiction - Rules Of Peace.flac" WAVE
TRACK 01 AUDIO
TITLE "Lie"
PERFORMER "Contradiction"
INDEX 00 00:00:00
INDEX 01 00:00:38
TRACK 02 AUDIO
TITLE "Chains Of Misery"
PERFORMER "Contradiction"
INDEX 01 03:43:70
TRACK 03 AUDIO
TITLE "Change Your Mind"
PERFORMER "Contradiction"
INDEX 00 07:57:20
INDEX 01 08:01:03
TRACK 04 AUDIO
TITLE "Kingdom Of The Damned"
PERFORMER "Contradiction"
INDEX 00 13:21:65
INDEX 01 13:23:05
TRACK 05 AUDIO
TITLE "Submissive Servant"
PERFORMER "Contradiction"
INDEX 00 19:02:23
INDEX 01 19:03:73
TRACK 06 AUDIO
TITLE "So What!?"
PERFORMER "Contradiction"
INDEX 00 24:09:18
INDEX 01 24:11:55
TRACK 07 AUDIO
TITLE "Trilogy Of Darkness Pt.1"
PERFORMER "Contradiction"
INDEX 00 29:13:20
INDEX 01 29:16:40
TRACK 08 AUDIO
TITLE "Trilogy Of Darkness Pt.2"
PERFORMER "Contradiction"
INDEX 01 34:23:18
TRACK 09 AUDIO
TITLE "Trilogy Of Darkness Pt.3"
PERFORMER "Contradiction"
INDEX 01 39:19:43
TRACK 10 AUDIO
TITLE "Despising The Rules Of Peace"
PERFORMER "Contradiction"
INDEX 00 44:29:08
INDEX 01 44:31:05
TRACK 11 AUDIO
TITLE "Nuclear Disaster"
PERFORMER "Contradiction"
INDEX 00 48:40:60
INDEX 01 48:42:08
TRACK 12 AUDIO
TITLE "Pray To Me"
PERFORMER "Contradiction"
INDEX 00 54:26:30
INDEX 01 54:28:65
TRACK 13 AUDIO
TITLE "The Hunter"
PERFORMER "Contradiction"
INDEX 00 60:30:15
INDEX 01 60:32:53

Spectrum
Image


Narod.Ru

Давно у нас трэша не было! :true:


Top
 Profile E-mail  
 
 
PostPosted: 05 Jul 2011 
*** Умер ***
User avatar
Joined: 25 Apr 2009
Posts: 2188
Lоcаtion: Санкт-Петербург
Age: 35
Name: Кирилл
Слушал этот альбом,хорошая вещь, :true:


Top
 Profile E-mail  
 
 
PostPosted: 05 Jul 2011 
Прокъмитолист
User avatar
Joined: 12 Aug 2007
Posts: 6795
Lоcаtion: Санктъ-Петербуркъ
Age: 53
Name: Олекъ
а у меня уже есть ;) :true:

Дим, если ты кстати не против, то я рипы с твоих дисков мог бы какнить и на ММТ зафигачить :oops:

_________________
прокъметол - это музыко, от которово есть прок (ы)


Top
 Profile  
 
 
PostPosted: 05 Jul 2011 
Хиппей (support team)
User avatar
Joined: 30 Jul 2007
Posts: 119981
Lоcаtion: Киев (Kyiv, UA)
Age: 47
Name: Andrey
:thanx: :true:
mirror: MultiUp l Narod

_________________


Top
 Profile E-mail  
 
 
PostPosted: 05 Jul 2011 
А может смените мне статус?..
User avatar
Joined: 17 Jan 2008
Posts: 901
Lоcаtion: Пенза
Age: 43
Name: Денис
:true: Спасибо :true:


Top
 Profile  
 
 
PostPosted: 05 Jul 2011 
Работнечег
User avatar
Joined: 28 Aug 2007
Posts: 6363
Lоcаtion: г. Москва
Age: 31
Name: Дима
spiralarch wrote:
а у меня уже есть ;) :true:

Дим, если ты кстати не против, то я рипы с твоих дисков мог бы какнить и на ММТ зафигачить :oops:

Да, конечно, финачь, если хочешь)) я думал, что часть там и так есть)


Top
 Profile E-mail  
 
 
PostPosted: 05 Jul 2011 
Работнечег
User avatar
Joined: 28 Aug 2007
Posts: 6363
Lоcаtion: г. Москва
Age: 31
Name: Дима
klod77 wrote:
:true: Спасибо :true:

Надеюсь будет продолжение ;)


Top
 Profile E-mail  
 
Display posts from previous:  Sort by  
Post new topic Reply to topic  [ 7 posts ] 

All times are UTC + 3 hours


Who is online

Users browsing this forum: No registered users and 3 guests


You cannot post new topics in this forum
You cannot reply to topics in this forum
You cannot edit your posts in this forum
You cannot delete your posts in this forum
You cannot post attachments in this forum

Search for:
Яндекс.Метрика
Powered by phpBB © 2000, 2002, 2005, 2007 phpBB Group