\m/ 80's metal \m/

Информационно-аналитический форум "80 см пыли" (In Search We Trust) "У нас никто никуда не спешит"
Me For You - http://me-4u.com
It is currently 06 Dec 2021

All times are UTC + 3 hours

Spoiler
Chat - temporary registration for foreign users (please leave your application here)







Post new topic Reply to topic  [ 10 posts ] 
Author Message
 
PostPosted: 13 Jun 2011 
Хиппей (support team)
User avatar
Joined: 30 Jul 2007
Posts: 123253
Lоcаtion: Киев (Kyiv, UA)
Age: 48
Name: Andrey
Chronical Disturbance - 1990 - Foggy Creek [flac]

Attachment:
front.jpg



Genre: Thrash Metal
Location: Canada
Format: flac+cue+log (no scans)
Size: 337 Mb


Line-up:
Vocals/Guitars: Alain Lefebvre (Steve Allen) (Outrage (Can))
Guitars: Alain Deslauriers
Bass: Pierre Delorme
Drums: Francois Richard (Martyr (Can))

    1. Foggy Creek - 04:31
    2. Crust and Crumbs - 04:22
    3. Chronic Confusion - 04:03
    4. Sordid End - 04:13
    5. Starless - 08:30
    6. Ratrace - 03:51
    7. Open Season - 04:05
    8. No Tomorrow - 04:19
    9. Doctor Death (instrumental) - 05:52
    10. Prejudice - 03:51

    TPT: 47:37

MultiUp l Narod

Thanx to Gnoppi from MMT :thanx:

Хороший, крепкий технический трэшак, направленный на калифорнийскую волну трэша. Ближайшие аналогии - хм... британцы Cerebral Fix :crazy:

log
Exact Audio Copy V0.99 prebeta 4 from 23. January 2008

EAC extraction logfile from 16. January 2010, 15:53

CHRONICAL DISTURBANCE / Foggy Creek

Used drive : PLEXTOR CD-R PREMIUM2 Adapter: 0 ID: 1

Read mode : Secure
Utilize accurate stream : Yes
Defeat audio cache : Yes
Make use of C2 pointers : No

Read offset correction : 30
Overread into Lead-In and Lead-Out : No
Fill up missing offset samples with silence : Yes
Delete leading and trailing silent blocks : No
Null samples used in CRC calculations : No
Used interface : Native Win32 interface for Win NT & 2000

Used output format : Internal WAV Routines
Sample format : 44.100 Hz; 16 Bit; Stereo


TOC of the extracted CD

Track | Start | Length | Start sector | End sector
---------------------------------------------------------
1 | 0:00.32 | 4:31.18 | 32 | 20374
2 | 4:31.50 | 4:22.45 | 20375 | 40069
3 | 8:54.20 | 4:03.17 | 40070 | 58311
4 | 12:57.37 | 4:13.43 | 58312 | 77329
5 | 17:11.05 | 8:30.40 | 77330 | 115619
6 | 25:41.45 | 3:51.27 | 115620 | 132971
7 | 29:32.72 | 4:05.58 | 132972 | 151404
8 | 33:38.55 | 4:18.72 | 151405 | 170826
9 | 37:57.52 | 5:51.70 | 170827 | 197221
10 | 43:49.47 | 3:51.60 | 197222 | 214606


Range status and errors

Selected range

Filename J:\EAC WORK\CHRONICAL DISTURBANCE - Foggy Creek.wav

Peak level 100.0 %
Range quality 100.0 %
Copy CRC 974A5C74
Copy OK

No errors occurred


AccurateRip summary

Track 1 accurately ripped (confidence 1) [E012A91A]
Track 2 accurately ripped (confidence 1) [0E9616CE]
Track 3 accurately ripped (confidence 1) [A32661AA]
Track 4 accurately ripped (confidence 1) [D01A7D24]
Track 5 accurately ripped (confidence 1) [228E6FF8]
Track 6 accurately ripped (confidence 1) [EE878F01]
Track 7 accurately ripped (confidence 1) [11C230AD]
Track 8 accurately ripped (confidence 1) [8BFE3172]
Track 9 accurately ripped (confidence 1) [06960014]
Track 10 accurately ripped (confidence 1) [F402AB3D]

All tracks accurately ripped

End of status report


cue
REM GENRE Metal
REM DATE 1990
REM DISCID 7E0B2D0A
REM COMMENT "ExactAudioCopy v0.99pb4"
PERFORMER "CHRONICAL DISTURBANCE"
TITLE "Foggy Creek"
FILE "CHRONICAL DISTURBANCE - Foggy Creek.flac" WAVE
TRACK 01 AUDIO
TITLE "Foggy Creek"
PERFORMER "CHRONICAL DISTURBANCE"
INDEX 00 00:00:00
INDEX 01 00:00:32
TRACK 02 AUDIO
TITLE "Crust And Crumbs"
PERFORMER "CHRONICAL DISTURBANCE"
INDEX 01 04:31:50
TRACK 03 AUDIO
TITLE "Chronic Confusion"
PERFORMER "CHRONICAL DISTURBANCE"
INDEX 01 08:54:20
TRACK 04 AUDIO
TITLE "Sordid End"
PERFORMER "CHRONICAL DISTURBANCE"
INDEX 00 12:54:20
INDEX 01 12:57:37
TRACK 05 AUDIO
TITLE "Starless"
PERFORMER "CHRONICAL DISTURBANCE"
INDEX 01 17:11:05
TRACK 06 AUDIO
TITLE "Ratrace"
PERFORMER "CHRONICAL DISTURBANCE"
INDEX 00 25:40:00
INDEX 01 25:41:45
TRACK 07 AUDIO
TITLE "Open Season"
PERFORMER "CHRONICAL DISTURBANCE"
INDEX 00 29:31:50
INDEX 01 29:32:72
TRACK 08 AUDIO
TITLE "No Tomorrow"
PERFORMER "CHRONICAL DISTURBANCE"
INDEX 01 33:38:55
TRACK 09 AUDIO
TITLE "Doctor Death"
PERFORMER "CHRONICAL DISTURBANCE"
INDEX 00 37:56:40
INDEX 01 37:57:52
TRACK 10 AUDIO
TITLE "Prejudice"
PERFORMER "CHRONICAL DISTURBANCE"
INDEX 00 43:48:17
INDEX 01 43:49:47

_________________


Top
 Profile E-mail  
 
 
PostPosted: 13 Jun 2011 
Анатолий
User avatar
Joined: 18 Oct 2008
Posts: 4216
Lоcаtion: Армавир
Age: 44
Name: Анатолий
Вельми понеже! :thanx:


Top
 Profile E-mail  
 
 
PostPosted: 13 Jun 2011 
Хиппей (support team)
User avatar
Joined: 30 Jul 2007
Posts: 123253
Lоcаtion: Киев (Kyiv, UA)
Age: 48
Name: Andrey
"Ты же, тела ради, душу погубил, еси, ино несть сие, несть" ©

:pardon:

цитата из переписки Ивана Грозного с Андреем Курбским

_________________


Top
 Profile E-mail  
 
 
PostPosted: 19 Jun 2011 
Работнечег
User avatar
Joined: 28 Aug 2007
Posts: 6392
Lоcаtion: г. Москва
Age: 32
Name: Дима
хым...чего-то даж названия не слышал ни разу..Спасибо!


Top
 Profile E-mail  
 
 
PostPosted: 19 Jun 2011 
Хиппей (support team)
User avatar
Joined: 30 Jul 2007
Posts: 123253
Lоcаtion: Киев (Kyiv, UA)
Age: 48
Name: Andrey
Димка, если скачаешь, маякни, плиз, архивы нормально распаковались?

_________________


Top
 Profile E-mail  
 
 
PostPosted: 19 Jun 2011 
Персональный статус
Joined: 19 Jul 2010
Posts: 283
Lоcаtion: Москва
Name: Вадим
О, вот это стоющая вещь! Спасибо за подгон.
Честно говоря, насчёт аналогии с Церебралами не согласен. Вообще затрудняюсь с выбором аналогов здесь... Скорее, на мой взгляд, среднее между Диоксен-89 и Ассортид Хип-92 :-))


Top
 Profile E-mail  
 
 
PostPosted: 20 Jun 2011 
Хиппей (support team)
User avatar
Joined: 30 Jul 2007
Posts: 123253
Lоcаtion: Киев (Kyiv, UA)
Age: 48
Name: Andrey
gonjubas wrote:
Честно говоря, насчёт аналогии с Церебралами не согласен

Вадим, и я тоже. Но:
1. Попросту забыл имя той канадской группы, на которую они очень похожи (думал, сначала, что это Anihilated, но страны не совпали :oops: )
2. Сравнил с британцами не просто так, а за именно за то, что британская сцена в начале 90-х умело скрещивать старый олдовый трэшак с хардкором и делать это очень технично и, местами оригинально :dance:

_________________


Top
 Profile E-mail  
 
 
PostPosted: 20 Jun 2011 
Персональный статус
Joined: 19 Jul 2010
Posts: 283
Lоcаtion: Москва
Name: Вадим
Scatterbrain wrote:
Сравнил с британцами не просто так, а за именно за то, что британская сцена в начале 90-х умело скрещивать старый олдовый трэшак с хардкором и делать это очень технично и, местами оригинально


И я как раз про то же: Церебралы, скорее, в первую очередь - это придэтованный кроссовер, а здесь всё-таки на первом плане технотрешевая составляющая плюс мелодичность. Но опять же всё это субъективные восприятия - кто-то другой может всё слышать по-другому. :-)) У меня есть приятель, с которым мы слушаем практически одни и те же группы, только альбомы любимые разные. Так зачастую мы с ним понять не можем друг друга, что может быть интересного в том или ином треке. :-))


Top
 Profile E-mail  
 
 
PostPosted: 21 Jun 2011 
Хиппей (support team)
User avatar
Joined: 30 Jul 2007
Posts: 123253
Lоcаtion: Киев (Kyiv, UA)
Age: 48
Name: Andrey
gonjubas wrote:
Церебралы, скорее, в первую очередь - это придэтованный кроссовер, а здесь всё-таки на первом плане технотрешевая составляющая плюс мелодичность. Но опять же всё это субъективные восприятия

Угу, и смотря... ой... то есть, смотря какой их альбом слушать :shok:

_________________


Top
 Profile E-mail  
 
 
PostPosted: 30 Oct 2011 
Power Metal Maniac
User avatar
Joined: 09 Aug 2008
Posts: 7484
Lоcаtion: Москва
Age: 43
Name: Егор
:thanx:

_________________
Long Live Metal!


Top
 Profile  
 
Display posts from previous:  Sort by  
Post new topic Reply to topic  [ 10 posts ] 

All times are UTC + 3 hours


Who is online

Users browsing this forum: No registered users and 1 guest


You cannot post new topics in this forum
You cannot reply to topics in this forum
You cannot edit your posts in this forum
You cannot delete your posts in this forum

Search for:
Яндекс.Метрика
Powered by phpBB © 2000, 2002, 2005, 2007 phpBB Group