\m/ 80's metal \m/

Информационно-аналитический форум "80 см пыли" (In Search We Trust) "У нас никто никуда не спешит"
Me For You - http://me-4u.com
It is currently 17 Jan 2021

All times are UTC + 3 hours

Spoiler
Chat - temporary registration for foreign users (please leave your application here)







Post new topic Reply to topic  [ 2 posts ] 
Author Message
 
PostPosted: 30 Mar 2011 
Генеральный thrasher
User avatar
Joined: 03 Oct 2008
Posts: 3751
Lоcаtion: Ханты-Мансийский АО
Age: 45
Name: Сергей
Image

Year:1986
Style:Heavy Metal
Country:Czech Republic
Audio:Wav+Cue+Log
Size:472Mb
Label:Supraphon

Line-Up:
Jaroslav Bartoň – guitar;
Stanislav Hranický – vocal;
Radim Pařízek – drums, vocal;
Václav Vlasák – bass guitar, vocal;
Jindřich Kvita – guitar, vocal

Tracklist:
01. Ocelové srdce - 04:50
02. Rock, Rock, Rock - 03:45
03. Vecný cizinec - 03:57
04. Vzpomínky - 05:08
05. Nechod' dál - 03:42
06. Uz víme svý - 02:46
07. Dej mi s tím pokoj - 03:44
08. Zahradní slavnost - 04:49
09. Plni energie - 06:01
10. Vsední, nevsední - 04:16

Cue
REM GENRE "Heavy Metal"
REM DATE 1985
REM DISCID 880A230A
REM COMMENT "ExactAudioCopy v0.99pb4"
PERFORMER "Citron"
TITLE "Plni energie"
FILE "Citron - Plni Energie.wav" WAVE
TRACK 01 AUDIO
TITLE "Ocelovй srdce"
PERFORMER "Citron"
FLAGS DCP
INDEX 00 00:00:00
INDEX 01 00:02:00
TRACK 02 AUDIO
TITLE "Rock, Rock, Rock"
PERFORMER "Citron"
FLAGS DCP
INDEX 00 02:28:13
INDEX 01 04:53:69
TRACK 03 AUDIO
TITLE "Vecnэ cizinec"
PERFORMER "Citron"
FLAGS DCP
INDEX 00 08:39:31
INDEX 01 08:41:07
TRACK 04 AUDIO
TITLE "Vzpomнnky"
PERFORMER "Citron"
FLAGS DCP
INDEX 00 12:38:47
INDEX 01 12:40:38
TRACK 05 AUDIO
TITLE "Nechod' dбl"
PERFORMER "Citron"
FLAGS DCP
INDEX 00 17:47:35
INDEX 01 17:50:33
TRACK 06 AUDIO
TITLE "Uz vнme svэ"
PERFORMER "Citron"
FLAGS DCP
INDEX 00 21:33:14
INDEX 01 21:34:62
TRACK 07 AUDIO
TITLE "Dej mi s tнm pokoj"
PERFORMER "Citron"
FLAGS DCP
INDEX 00 24:19:02
INDEX 01 24:22:34
TRACK 08 AUDIO
TITLE "Zahradnн slavnost"
PERFORMER "Citron"
FLAGS DCP
INDEX 00 28:06:50
INDEX 01 28:08:25
TRACK 09 AUDIO
TITLE "Plni energie"
PERFORMER "Citron"
FLAGS DCP
INDEX 00 32:56:42
INDEX 01 32:59:18
TRACK 10 AUDIO
TITLE "Vsednн, nevsednн"
PERFORMER "Citron"
FLAGS DCP
INDEX 00 38:58:16
INDEX 01 39:02:01


Log
Exact Audio Copy V0.99 prebeta 4 from 23. January 2008

Zбznam extrakce EAC z 28. Duben 2009, 6:58

Citron / Plni energie

Pouћitб mechanika : MATSHITADVD-RAM UJ-850S Adapter: 2 ID: 0

Reћim иtenн : Bezpeиnэ
Pouћнt accurate stream : Ano
Obejнt zvukovou vyr. pamмќ : Ano
Pouћнt C2 ukazatele : Ne

Korekce vychэlenн иtenн : 102
Инst lead-in a lead-out : Ne
Nahradit chybмjнcн vzorky tichem : Ano
Smazat ticho na zaибtku a na konci stop : Ne
Pшi vэpoиtu CRC pouћity nulovй vzorky : Ne
Pouћitй rozhranн : Extenн ASPI rozhranн

Pouћitэ vэstupnн formбt : Internal WAV Routines
Formбt vzorkovбnн : 44.100 Hz; 16 Bit; Stereo


TOC extrahovanйho CD

Stopa | Poибtek | Dйlka | Poибteиnн sektor | Koncovэ sektor
-----------------------------------------------------------------
1 | 0:02.00 | 4:51.69 | 150 | 22043
2 | 4:53.69 | 3:47.13 | 22044 | 39081
3 | 8:41.07 | 3:59.31 | 39082 | 57037
4 | 12:40.38 | 5:09.70 | 57038 | 80282
5 | 17:50.33 | 3:44.29 | 80283 | 97111
6 | 21:34.62 | 2:47.47 | 97112 | 109683
7 | 24:22.34 | 3:45.66 | 109684 | 126624
8 | 28:08.25 | 4:50.68 | 126625 | 148442
9 | 32:59.18 | 6:02.58 | 148443 | 175650
10 | 39:02.01 | 4:15.70 | 175651 | 194845


Rozsah - stav a chyby

Vybranэ rozsah

nбzev souboru c_pe_1986.wav

љpiиkovб ъrovмт 100.0 %
kvalita rozsahu 100.0 %
CRC kopie 203A071F
kopie OK

Nedoљlo k ћбdnэm chybбm


AccurateRip

Stopa 1 nenн v databбzi
Stopa 2 nenн v databбzi
Stopa 3 nenн v databбzi
Stopa 4 nenн v databбzi
Stopa 5 nenн v databбzi
Stopa 6 nenн v databбzi
Stopa 7 nenн v databбzi
Stopa 8 nenн v databбzi
Stopa 9 nenн v databбzi
Stopa 10 nenн v databбzi

Ani jedna ze stop nenн v AccurateRip databбzi

Konec stavovйho hlбљenн


Tau
Image

Image


Plni Energie

Чешскоязычная версия альбома "Full Of Energy"....


Top
 Profile  
 
 
PostPosted: 28 Jul 2011 
Хиппей (support team)
User avatar
Joined: 30 Jul 2007
Posts: 119777
Lоcаtion: Киев (Kyiv, UA)
Age: 47
Name: Andrey
:thanx: :true:
mirror: MultiUp l Narod

_________________


Top
 Profile E-mail  
 
Display posts from previous:  Sort by  
Post new topic Reply to topic  [ 2 posts ] 

All times are UTC + 3 hours


Who is online

Users browsing this forum: No registered users and 4 guests


You cannot post new topics in this forum
You cannot reply to topics in this forum
You cannot edit your posts in this forum
You cannot delete your posts in this forum
You cannot post attachments in this forum

Search for:
Яндекс.Метрика
cron
Powered by phpBB © 2000, 2002, 2005, 2007 phpBB Group