\m/ 80's metal \m/

Информационно-аналитический форум "80 см пыли" (In Search We Trust) "У нас никто никуда не спешит"
Me For You - http://me-4u.com
It is currently 28 Nov 2021

All times are UTC + 3 hours

Spoiler
Chat - temporary registration for foreign users (please leave your application here)







Post new topic Reply to topic  [ 11 posts ] 
Author Message
 
PostPosted: 18 Feb 2011 
Работнечег
User avatar
Joined: 28 Aug 2007
Posts: 6392
Lоcаtion: г. Москва
Age: 32
Name: Дима
Attachment:
front.jpg


Attachment:
back.jpg


Band: Cannon
Album: Thunder & Lightning
Year: 2008
Label: Metal Mayhem Music
Genre: Heavy Metal
Coutry: Germany
Format: Flac + Log + Cue + Covers
Size: 372 Mb

Line-Up:
Mat-Rein Jahnke (vocals)
W.Ross Mueller (guitar)
Olli Krueger (guitar)
Steve Carrington (bass)
Mats Toralf (drums)


Tracklist:
1. Lies 04:16
2. Stand the Fight 04:14
3. Fireblade 04:50
4. Nuclear Light 04:28
5. Evil Shadows 05:05
6. Thunder and Lightning 04:45
7. Heaven's On Fools Side 04:21
8. Rockamania 04:21
9. Metal forever (M.E.T.A.L.) 04:43
10. Thunder and Lightning (Extended Version)

LOG
Exact Audio Copy V0.99 prebeta 5 from 4. May 2009

EAC extraction logfile from 18. February 2011, 13:54

Cannon / Thunder & Lightning

Used drive : PIONEER DVD-RW DVR-116D Adapter: 0 ID: 0

Read mode : Secure
Utilize accurate stream : Yes
Defeat audio cache : Yes
Make use of C2 pointers : No

Read offset correction : 96
Overread into Lead-In and Lead-Out : No
Fill up missing offset samples with silence : Yes
Delete leading and trailing silent blocks : No
Null samples used in CRC calculations : Yes
Used interface : Native Win32 interface for Win NT & 2000

Used output format : User Defined Encoder
Selected bitrate : 32 kBit/s
Quality : High
Add ID3 tag : No
Command line compressor : C:\Program Files\Exact Audio Copy\Flac\flac.exe
Additional command line options : -6 -V %s


TOC of the extracted CD

Track | Start | Length | Start sector | End sector
---------------------------------------------------------
1 | 0:00.00 | 4:22.00 | 0 | 19649
2 | 4:22.00 | 4:19.53 | 19650 | 39127
3 | 8:41.53 | 4:55.37 | 39128 | 61289
4 | 13:37.15 | 4:26.00 | 61290 | 81239
5 | 18:03.15 | 4:35.35 | 81240 | 101899
6 | 22:38.50 | 5:15.18 | 101900 | 125542
7 | 27:53.68 | 4:47.54 | 125543 | 147121
8 | 32:41.47 | 4:29.28 | 147122 | 167324
9 | 37:11.00 | 4:49.50 | 167325 | 189049
10 | 42:00.50 | 5:59.03 | 189050 | 215977


Range status and errors

Selected range

Filename D:\Музыка\Lossless\Cannon - Thunder And Lightning (1988)(Reissued In 2008)\Cannon - Thunder & Lightning.wav

Peak level 97.6 %
Range quality 100.0 %
Copy CRC 2E016347
Copy OK

No errors occurred


AccurateRip summary

Track 1 not present in database
Track 2 not present in database
Track 3 not present in database
Track 4 not present in database
Track 5 not present in database
Track 6 not present in database
Track 7 not present in database
Track 8 not present in database
Track 9 not present in database
Track 10 not present in database

None of the tracks are present in the AccurateRip database

End of status report

CUE
REM GENRE "Heavy Metal"
REM DATE 2008
REM DISCID 7D0B3F0A
REM COMMENT "ExactAudioCopy v0.99pb5"
PERFORMER "Cannon"
TITLE "Thunder & Lightning"
FILE "Cannon - Thunder & Lightning.flac" WAVE
TRACK 01 AUDIO
TITLE "Lies"
PERFORMER "Cannon"
INDEX 01 00:00:00
TRACK 02 AUDIO
TITLE "Stand The Fight"
PERFORMER "Cannon"
INDEX 01 04:22:00
TRACK 03 AUDIO
TITLE "Fireblade"
PERFORMER "Cannon"
INDEX 01 08:41:53
TRACK 04 AUDIO
TITLE "Rockamania"
PERFORMER "Cannon"
INDEX 01 13:37:15
TRACK 05 AUDIO
TITLE "Nuclear Light"
PERFORMER "Cannon"
INDEX 01 18:03:15
TRACK 06 AUDIO
TITLE "Evil Shadow"
PERFORMER "Cannon"
INDEX 01 22:38:50
TRACK 07 AUDIO
TITLE "Thunder And Lightning"
PERFORMER "Cannon"
INDEX 01 27:53:68
TRACK 08 AUDIO
TITLE "Heaven's On Fools Side"
PERFORMER "Cannon"
INDEX 01 32:41:47
TRACK 09 AUDIO
TITLE "Metal Forever (M.E.T.A.L.)"
PERFORMER "Cannon"
INDEX 01 37:11:00
TRACK 10 AUDIO
TITLE "Thunder And Lightning (extended version)"
PERFORMER "Cannon"
INDEX 01 42:00:50


http://ifolder.ru/21974825

Очень хорошее по звуку издание, как мне показалось, без косяков и артефактов.

spectrum
Attachment:
spectrum.jpg


Top
 Profile E-mail  
 
 
PostPosted: 18 Feb 2011 
Прокъмитолист
User avatar
Joined: 12 Aug 2007
Posts: 6878
Lоcаtion: Санктъ-Петербуркъ
Age: 54
Name: Олекъ
спасибо, Димка! :true:

_________________
прокъметол - это музыко, от которово есть прок (ы)


Top
 Profile  
 
 
PostPosted: 19 Feb 2011 
Хиппей (support team)
User avatar
Joined: 30 Jul 2007
Posts: 123139
Lоcаtion: Киев (Kyiv, UA)
Age: 48
Name: Andrey
:thanx:

_________________


Top
 Profile E-mail  
 
 
PostPosted: 19 Feb 2011 
Персональный статус
Joined: 02 Apr 2010
Posts: 223
Name: Андрей
Огромное Спасибо! :thanx: :true:


Top
 Profile  
 
 
PostPosted: 19 Feb 2011 
Генеральный thrasher
User avatar
Joined: 03 Oct 2008
Posts: 3751
Lоcаtion: Ханты-Мансийский АО
Age: 46
Name: Сергей
Спасибо,Дим!


Top
 Profile  
 
 
PostPosted: 19 Feb 2011 
Я набрал 1000 сообщений!
Joined: 03 Jul 2009
Posts: 1043
Lоcаtion: Serbia
Name: Laki
Спасибо! :thanx: :thanx: :thanx:


Top
 Profile E-mail  
 
 
PostPosted: 19 Feb 2011 
Хиппей (support team)
User avatar
Joined: 30 Jul 2007
Posts: 123139
Lоcаtion: Киев (Kyiv, UA)
Age: 48
Name: Andrey
mirror: MultiUp l Narod

_________________


Top
 Profile E-mail  
 
 
PostPosted: 21 Feb 2011 
Пионэръ
Joined: 12 Aug 2009
Posts: 23
Name: Явор
СПАСИБО, ДИМА :true:


Top
 Profile E-mail  
 
 
PostPosted: 16 Apr 2011 
Я набрал 1000 сообщений!
Joined: 12 Dec 2008
Posts: 1100
Lоcаtion: BULGARIA
Age: 43
Name: DIMITЪR
Thank you за шедьовр! :true:


Top
 Profile  
 
 
PostPosted: 11 Oct 2011 
Хиппей (support team)
User avatar
Joined: 30 Jul 2007
Posts: 123139
Lоcаtion: Киев (Kyiv, UA)
Age: 48
Name: Andrey
Эх, офигенный Heavy Power 80's :true: :true: :true:

10/10

А, то, едрить, заполонили весь Интернет модняком, блевать охота.
Учитесь, как нужно играть настоящую музыку :smerd: :esel: :punko: :garmo:

Звук отличный. Димка, спасибо в очередной раз! :thanx:

_________________


Top
 Profile E-mail  
 
 
PostPosted: 11 Oct 2011 
Я набрал 1000 сообщений!
Joined: 24 Oct 2009
Posts: 2565
Lоcаtion: РСФСР
Age: 58
Name: Юра
Ой, я-ж паразит Спасибо забыл сказать... :dash:
Дим Спасибо! :thanx: :ura:

_________________
:dash: I am happy!


Top
 Profile E-mail  
 
Display posts from previous:  Sort by  
Post new topic Reply to topic  [ 11 posts ] 

All times are UTC + 3 hours


Who is online

Users browsing this forum: No registered users and 1 guest


You cannot post new topics in this forum
You cannot reply to topics in this forum
You cannot edit your posts in this forum
You cannot delete your posts in this forum

Search for:
Яндекс.Метрика
Powered by phpBB © 2000, 2002, 2005, 2007 phpBB Group