\m/ 80's metal \m/

Информационно-аналитический форум "80 см пыли" (In Search We Trust) "У нас никто никуда не спешит"
Me For You - http://me-4u.com
It is currently 06 Dec 2021

All times are UTC + 3 hours

Spoiler
Chat - temporary registration for foreign users (please leave your application here)







Post new topic Reply to topic  [ 16 posts ] 
Author Message
 
PostPosted: 15 Feb 2011 
Генеральный thrasher
User avatar
Joined: 03 Oct 2008
Posts: 3751
Lоcаtion: Ханты-Мансийский АО
Age: 46
Name: Сергей
Image

Year:1992
Style:Heavy/Thrash Metal
Country:U.S.A.
Audio:Flac+Cue+Log+Scans
Size:243Mb
Source:my CD
Label:Under One Flag

Line-Up:
Glenn Evans - Drums, Bass, Guitars, Vocals
Dave DiPietro - Guitars

Tracklist:
1. C.I.A. 03:40
2. Attitude 04:04
3. Time 04:37
4. Hammer of the Gods 03:08
5. Insecurity 02:52
6. Status Quo 03:10
7. Suicide 03:01
8. Flattery 02:41
9. No Shame 02:39

Cue
REM GENRE "Thrash Metal"
REM DATE 1992
REM DISCID 70070509
REM COMMENT "ExactAudioCopy v0.99pb5"
PERFORMER "C.I.A."
TITLE "Attitude"
FILE "C.I.A. - Attitude.flac" WAVE
TRACK 01 AUDIO
TITLE "C.I.A."
PERFORMER "C.I.A."
INDEX 01 00:00:00
TRACK 02 AUDIO
TITLE "Attitude"
PERFORMER "C.I.A."
INDEX 01 03:40:10
TRACK 03 AUDIO
TITLE "Time"
PERFORMER "C.I.A."
INDEX 00 07:42:50
INDEX 01 07:44:05
TRACK 04 AUDIO
TITLE "Hammer Of The Gods"
PERFORMER "C.I.A."
INDEX 01 12:21:42
TRACK 05 AUDIO
TITLE "Insecurity"
PERFORMER "C.I.A."
INDEX 01 15:29:65
TRACK 06 AUDIO
TITLE "Status Quo"
PERFORMER "C.I.A."
INDEX 01 18:22:55
TRACK 07 AUDIO
TITLE "Suicide"
PERFORMER "C.I.A."
INDEX 01 21:33:50
TRACK 08 AUDIO
TITLE "Flattery"
PERFORMER "C.I.A."
INDEX 01 24:35:37
TRACK 09 AUDIO
TITLE "No Shame"
PERFORMER "C.I.A."
INDEX 01 27:17:05


Log
Exact Audio Copy V0.99 prebeta 5 from 4. May 2009

Отчёт EAC об извлечении, выполненном 13. февраля 2011, 10:31

C.I.A. / Attitude

Дисковод: TSSTcorpCDDVDW SH-S202N Adapter: 0 ID: 1

Режим чтения : Достоверность
Использование точного потока : Да
Отключение кэша аудио : Да
Использование указателей C2 : Нет

Коррекция смещения при чтении : 6
Способность читать области Lead-in и Lead-out : Нет
Заполнение пропущенных сэмплов тишиной : Да
Удаление блоков с тишиной в начале и конце : Нет
При вычислениях CRC использовались нулевые сэмплы : Да
Интерфейс : Встроенный Win32-интерфейс для Win NT/2000

Выходной формат : Пользовательский кодировщик
Выбранный битрейт : 768 kBit/s
Качество : Высокий
Добавление ID3-тэга : Нет
Утилита сжатия : C:\Program Files\Exact Audio Copy\FLAC\FLAC.EXE
Дополнительные параметры : -6 -V -T "ARTIST=%a" -T "TITLE=%t" -T "ALBUM=%g" -T "DATE=%y" -T "TRACKNUMBER=%n" -T "GENRE=%m" -T "COMMENT=%e" %s -o %d


TOC извлечённого CD

Трек | Старт | Длительность | Начальный сектор | Конечный сектор
---------------------------------------------------------------------
1 | 0:00.00 | 3:40.10 | 0 | 16509
2 | 3:40.10 | 4:03.70 | 16510 | 34804
3 | 7:44.05 | 4:37.37 | 34805 | 55616
4 | 12:21.42 | 3:08.23 | 55617 | 69739
5 | 15:29.65 | 2:52.65 | 69740 | 82704
6 | 18:22.55 | 3:10.70 | 82705 | 97024
7 | 21:33.50 | 3:01.62 | 97025 | 110661
8 | 24:35.37 | 2:41.43 | 110662 | 122779
9 | 27:17.05 | 2:39.70 | 122780 | 134774


Характеристики диапазона извлечения и сообщения об ошибках

Выбранный диапазон

Имя файла E:\Лоси\C\C.I.A. - Attitude.wav

Пиковый уровень 95.8 %
Качество диапазона 100.0 %
CRC копии F8476F7E
Копирование... OK

Ошибок не произошло


AccurateRip: сводка

Трек 1 точное извлечение (доверие 1) [EB1A1BB2]
Трек 2 точное извлечение (доверие 1) [8A1F8B35]
Трек 3 точное извлечение (доверие 1) [8F89DA6A]
Трек 4 точное извлечение (доверие 1) [3EE49F6F]
Трек 5 точное извлечение (доверие 1) [19C7D03D]
Трек 6 точное извлечение (доверие 1) [EFC39884]
Трек 7 точное извлечение (доверие 1) [43B3AA8B]
Трек 8 точное извлечение (доверие 1) [A2F67795]
Трек 9 точное извлечение (доверие 1) [CD58DD3F]

Все треки извлечены точно

Конец отчёта


Attitude


Last edited by Scatterbrain on 28 Mar 2018, edited 1 time in total.
Подправил имя топика


Top
 Profile  
 
 
PostPosted: 16 Feb 2011 
Работнечег
User avatar
Joined: 28 Aug 2007
Posts: 6392
Lоcаtion: г. Москва
Age: 32
Name: Дима
Спасибо, Серёг! Тож хотел себе как-то брать, но потом передумал, хотя группа вполне на уровне!
P.S. Лоси чего-то не нужны никому, комментов нет (


Top
 Profile E-mail  
 
 
PostPosted: 16 Feb 2011 
дядя Миша
User avatar
Joined: 17 Oct 2008
Posts: 3633
Lоcаtion: USSR
Age: 59
Name: Khy
спасибо! качеству всегда рад.


Top
 Profile  
 
 
PostPosted: 19 Feb 2011 
metallpaparazzy
User avatar
Joined: 20 Dec 2009
Posts: 674
Lоcаtion: Днепропетровск
Age: 46
Name: Геннадий
:thanx:
первый когдато был на болванке, ниче вроде... заслухаю этот.


Top
 Profile E-mail  
 
 
PostPosted: 19 Feb 2011 
Хиппей (support team)
User avatar
Joined: 30 Jul 2007
Posts: 123253
Lоcаtion: Киев (Kyiv, UA)
Age: 48
Name: Andrey
Урраа!! Серёг, спасибо! :true: :thanx:

_________________


Top
 Profile E-mail  
 
 
PostPosted: 28 Mar 2018 
DarkSage
User avatar
Joined: 24 Sep 2009
Posts: 1227
Lоcаtion: Moscow
Name: Оксана
Как насчёт полечить? :esel:

_________________
Image.


Top
 Profile E-mail  
 
 
PostPosted: 28 Mar 2018 
Хиппей (support team)
User avatar
Joined: 30 Jul 2007
Posts: 123253
Lоcаtion: Киев (Kyiv, UA)
Age: 48
Name: Andrey
А тута нету? :scratch: https://7tor.ws/viewtopic.php?t=1270766 ... 853b94f447

_________________


Top
 Profile E-mail  
 
 
PostPosted: 28 Mar 2018 
Хиппей (support team)
User avatar
Joined: 30 Jul 2007
Posts: 123253
Lоcаtion: Киев (Kyiv, UA)
Age: 48
Name: Andrey
Не-а, нету там ничо.
Явно у меня на винте втором есть и у Серёги на диске =) Ну и у тех, кто качал ранее.

_________________


Top
 Profile E-mail  
 
 
PostPosted: 28 Mar 2018 
Хиппей (support team)
User avatar
Joined: 30 Jul 2007
Posts: 123253
Lоcаtion: Киев (Kyiv, UA)
Age: 48
Name: Andrey
Оксан, а с ММТ лось пойдёть? :lloo:

_________________


Top
 Profile E-mail  
 
 
PostPosted: 28 Mar 2018 
Генеральный thrasher
User avatar
Joined: 03 Oct 2008
Posts: 3751
Lоcаtion: Ханты-Мансийский АО
Age: 46
Name: Сергей
На трэкере в дискографии Nuclear Assault оба альбома C.I.A.

https://rutracker.org/forum/viewtopic.php?t=4267306


Top
 Profile  
 
 
PostPosted: 28 Mar 2018 
Хиппей (support team)
User avatar
Joined: 30 Jul 2007
Posts: 123253
Lоcаtion: Киев (Kyiv, UA)
Age: 48
Name: Andrey
Вот так вот =)
Серёг, спасибо :crazy: :thanx:

_________________


Top
 Profile E-mail  
 
 
PostPosted: 28 Mar 2018 
Хиппей (support team)
User avatar
Joined: 30 Jul 2007
Posts: 123253
Lоcаtion: Киев (Kyiv, UA)
Age: 48
Name: Andrey
А у мене уже почти ММТэшный лось докачался...

Image

_________________


Top
 Profile E-mail  
 
 
PostPosted: 28 Mar 2018 
Хиппей (support team)
User avatar
Joined: 30 Jul 2007
Posts: 123253
Lоcаtion: Киев (Kyiv, UA)
Age: 48
Name: Andrey
Скачал. Скоро перелью сюда.

_________________


Top
 Profile E-mail  
 
 
PostPosted: 28 Mar 2018 
Хиппей (support team)
User avatar
Joined: 30 Jul 2007
Posts: 123253
Lоcаtion: Киев (Kyiv, UA)
Age: 48
Name: Andrey
C.I.A. - 1992 - Attitude (USA PRO 020) [flac]

Image Image Image

mirror: Giga l Drop l Narod l M-Cloud

Image Image

log
Exact Audio Copy V0.99 prebeta 5 from 4. May 2009

EAC extraction logfile from 19. November 2012, 12:46

C.I.A. / Attitude (USA PRO 020)

Used drive : PIONEER DVD-RW DVR-215 Adapter: 5 ID: 0

Read mode : Secure
Utilize accurate stream : Yes
Defeat audio cache : Yes
Make use of C2 pointers : No

Read offset correction : 48
Overread into Lead-In and Lead-Out : No
Fill up missing offset samples with silence : Yes
Delete leading and trailing silent blocks : No
Null samples used in CRC calculations : Yes
Used interface : Native Win32 interface for Win NT & 2000

Used output format : User Defined Encoder
Selected bitrate : 1024 kBit/s
Quality : High
Add ID3 tag : No
Command line compressor : C:\Program Files (x86)\Exact Audio Copy\Flac\flac.exe
Additional command line options : -8 -V %s


TOC of the extracted CD

Track | Start | Length | Start sector | End sector
---------------------------------------------------------
1 | 0:00.00 | 3:40.35 | 0 | 16534
2 | 3:40.35 | 4:04.02 | 16535 | 34836
3 | 7:44.37 | 4:37.38 | 34837 | 55649
4 | 12:22.00 | 3:08.22 | 55650 | 69771
5 | 15:30.22 | 2:52.58 | 69772 | 82729
6 | 18:23.05 | 3:10.72 | 82730 | 97051
7 | 21:34.02 | 3:01.63 | 97052 | 110689
8 | 24:35.65 | 2:41.32 | 110690 | 122796
9 | 27:17.22 | 2:39.65 | 122797 | 134786


Range status and errors

Selected range

Filename D:\bki71\Nuclear Assault\C.I.A. - Attitude (USA PRO 020).wav

Peak level 94.8 %
Range quality 99.9 %
Test CRC 1D106ABA
Copy CRC 1D106ABA
Copy OK

No errors occurred


AccurateRip summary

Track 1 accurately ripped (confidence 1) [AC436571]
Track 2 accurately ripped (confidence 1) [1042E7F0]
Track 3 accurately ripped (confidence 1) [AA77D3B0]
Track 4 accurately ripped (confidence 1) [2F5A7AC6]
Track 5 accurately ripped (confidence 1) [FDC4FAA2]
Track 6 accurately ripped (confidence 1) [DFF2247F]
Track 7 accurately ripped (confidence 1) [5BB337FC]
Track 8 accurately ripped (confidence 1) [5D0DE7CD]
Track 9 accurately ripped (confidence 1) [328AACE6]

All tracks accurately ripped

End of status report

cue
REM GENRE "Thrash Metal"
REM DATE 1992
REM DISCID 74070509
REM COMMENT "ExactAudioCopy v0.99pb5"
PERFORMER "C.I.A."
TITLE "Attitude (USA PRO 020)"
FILE "C.I.A. - Attitude (USA PRO 020).flac" WAVE
TRACK 01 AUDIO
TITLE "C.I.A."
PERFORMER "C.I.A."
INDEX 01 00:00:00
TRACK 02 AUDIO
TITLE "Attitude"
PERFORMER "C.I.A."
INDEX 00 03:40:30
INDEX 01 03:40:35
TRACK 03 AUDIO
TITLE "Time"
PERFORMER "C.I.A."
INDEX 00 07:42:53
INDEX 01 07:44:37
TRACK 04 AUDIO
TITLE "Hammer Of The Gods"
PERFORMER "C.I.A."
INDEX 00 12:21:70
INDEX 01 12:22:00
TRACK 05 AUDIO
TITLE "Insecurity"
PERFORMER "C.I.A."
INDEX 00 15:29:70
INDEX 01 15:30:22
TRACK 06 AUDIO
TITLE "Status Quo"
PERFORMER "C.I.A."
INDEX 00 18:23:00
INDEX 01 18:23:05
TRACK 07 AUDIO
TITLE "Suicide"
PERFORMER "C.I.A."
INDEX 00 21:33:73
INDEX 01 21:34:02
TRACK 08 AUDIO
TITLE "Flattery"
PERFORMER "C.I.A."
INDEX 00 24:35:60
INDEX 01 24:35:65
TRACK 09 AUDIO
TITLE "No Shame"
PERFORMER "C.I.A."
INDEX 00 27:17:20
INDEX 01 27:17:22

_________________


Top
 Profile E-mail  
 
 
PostPosted: 28 Mar 2018 
Хиппей (support team)
User avatar
Joined: 30 Jul 2007
Posts: 123253
Lоcаtion: Киев (Kyiv, UA)
Age: 48
Name: Andrey
C.I.A. - 1990 - In The Red (USA Combat 88561-2012-2) [flac]

Image Image Image

mirror: Giga l Drop l Narod l M-Cloud

Image Image

log
Exact Audio Copy V0.99 prebeta 5 from 4. May 2009

EAC extraction logfile from 19. November 2012, 13:00

C.I.A. / In The Red (USA Combat 88561-2012-2)

Used drive : PIONEER DVD-RW DVR-215 Adapter: 5 ID: 0

Read mode : Secure
Utilize accurate stream : Yes
Defeat audio cache : Yes
Make use of C2 pointers : No

Read offset correction : 48
Overread into Lead-In and Lead-Out : No
Fill up missing offset samples with silence : Yes
Delete leading and trailing silent blocks : No
Null samples used in CRC calculations : Yes
Used interface : Native Win32 interface for Win NT & 2000

Used output format : User Defined Encoder
Selected bitrate : 1024 kBit/s
Quality : High
Add ID3 tag : No
Command line compressor : C:\Program Files (x86)\Exact Audio Copy\Flac\flac.exe
Additional command line options : -8 -V %s


TOC of the extracted CD

Track | Start | Length | Start sector | End sector
---------------------------------------------------------
1 | 0:00.17 | 3:09.58 | 17 | 14249
2 | 3:10.00 | 3:25.55 | 14250 | 29679
3 | 6:35.55 | 3:46.22 | 29680 | 46651
4 | 10:22.02 | 3:06.55 | 46652 | 60656
5 | 13:28.57 | 3:55.70 | 60657 | 78351
6 | 17:24.52 | 3:04.33 | 78352 | 92184
7 | 20:29.10 | 3:46.52 | 92185 | 109186
8 | 24:15.62 | 2:10.68 | 109187 | 119004
9 | 26:26.55 | 2:58.52 | 119005 | 132406
10 | 29:25.32 | 3:50.65 | 132407 | 149721


Range status and errors

Selected range

Filename D:\bki71\Nuclear Assault\C.I.A. - In The Red (USA Combat 88561-2012-2).wav

Peak level 100.0 %
Range quality 100.0 %
Test CRC 72595BB6
Copy CRC 72595BB6
Copy OK

No errors occurred


AccurateRip summary

Track 1 accurately ripped (confidence 5) [D6BC1D37]
Track 2 accurately ripped (confidence 5) [997747FE]
Track 3 accurately ripped (confidence 5) [528CBC85]
Track 4 accurately ripped (confidence 5) [C262193C]
Track 5 accurately ripped (confidence 5) [DEDFD440]
Track 6 accurately ripped (confidence 5) [4C632071]
Track 7 accurately ripped (confidence 5) [C1CB4083]
Track 8 accurately ripped (confidence 5) [5DA2A919]
Track 9 accurately ripped (confidence 5) [9736CAD4]
Track 10 accurately ripped (confidence 5) [CDE78755]

All tracks accurately ripped

End of status report

cue
REM GENRE "Thrash Metal"
REM DATE 1990
REM DISCID 8407CC0A
REM COMMENT "ExactAudioCopy v0.99pb5"
PERFORMER "C.I.A."
TITLE "In The Red (USA Combat 88561-2012-2)"
FILE "C.I.A. - In The Red (USA Combat 88561-2012-2).flac" WAVE
TRACK 01 AUDIO
TITLE "Extinction"
PERFORMER "C.I.A."
INDEX 00 00:00:00
INDEX 01 00:00:17
TRACK 02 AUDIO
TITLE "Natas"
PERFORMER "C.I.A."
INDEX 01 03:10:00
TRACK 03 AUDIO
TITLE "In The Red"
PERFORMER "C.I.A."
INDEX 01 06:35:55
TRACK 04 AUDIO
TITLE "Buried Alive"
PERFORMER "C.I.A."
INDEX 01 10:22:02
TRACK 05 AUDIO
TITLE "N.A.S.A."
PERFORMER "C.I.A."
INDEX 01 13:28:57
TRACK 06 AUDIO
TITLE "Mind Over Matter"
PERFORMER "C.I.A."
INDEX 00 17:24:27
INDEX 01 17:24:52
TRACK 07 AUDIO
TITLE "Flight 103"
PERFORMER "C.I.A."
INDEX 01 20:29:10
TRACK 08 AUDIO
TITLE "Moby Dick Part 2"
PERFORMER "C.I.A."
INDEX 01 24:15:62
TRACK 09 AUDIO
TITLE "Turn To Stone"
PERFORMER "C.I.A."
INDEX 01 26:26:55
TRACK 10 AUDIO
TITLE "Samantha"
PERFORMER "C.I.A."
INDEX 01 29:25:32

_________________


Top
 Profile E-mail  
 
 
PostPosted: 28 Mar 2018 
DarkSage
User avatar
Joined: 24 Sep 2009
Posts: 1227
Lоcаtion: Moscow
Name: Оксана
Спасибо, уважаемые!

_________________
Image.


Top
 Profile E-mail  
 
Display posts from previous:  Sort by  
Post new topic Reply to topic  [ 16 posts ] 

All times are UTC + 3 hours


Who is online

Users browsing this forum: No registered users and 1 guest


You cannot post new topics in this forum
You cannot reply to topics in this forum
You cannot edit your posts in this forum
You cannot delete your posts in this forum

Search for:
Яндекс.Метрика
Powered by phpBB © 2000, 2002, 2005, 2007 phpBB Group