\m/ 80's metal \m/

Информационно-аналитический форум "80 см пыли" (In Search We Trust) "У нас никто никуда не спешит"
Me For You - http://me-4u.com
It is currently 19 Jan 2021

All times are UTC + 3 hours

Spoiler
Chat - temporary registration for foreign users (please leave your application here)







Post new topic Reply to topic  [ 3 posts ] 
Author Message
 
PostPosted: 15 Feb 2011 
Генеральный thrasher
User avatar
Joined: 03 Oct 2008
Posts: 3751
Lоcаtion: Ханты-Мансийский АО
Age: 45
Name: Сергей
Image

Year:1990
Style:Heavy/Thrash Metal
Country:U.S.A.
Audio:Flac+Cue+Log+Scans
Size:243Mb
Source:my CD
Label:Under One Flag

Line-Up:
Glenn Evans -vocals, drums, guitars
Dan Lilker - guitar riffs on Natas
Anthony Bramante - lead guitar on Buried Alive,1st and 3rd leads on In the Red,intro lead on Flight 103
Casey Mcmackin - lead on end of Buried Alive

Tracklist:
1. Extinction 03:09
2. Natas 03:25
3. In the Red 03:46
4. Buried Alive 03:06
5. N.A.S.A. 03:55
6. Mind Over Matter 03:04
7. Flight 103 03:46
8. Moby Dick part.2 02:10
9. Turn to Stone 02:58
10. Samantha 03:50

Cue
REM GENRE "Thrash Metal"
REM DATE 1990
REM DISCID 8807CD0A
REM COMMENT "ExactAudioCopy v0.99pb5"
PERFORMER "C.I.A."
TITLE "In The Red"
FILE "C.I.A. - In The Red.flac" WAVE
TRACK 01 AUDIO
TITLE "Extinction"
PERFORMER "C.I.A."
INDEX 00 00:00:00
INDEX 01 00:00:32
TRACK 02 AUDIO
TITLE "Natas"
PERFORMER "C.I.A."
INDEX 01 03:09:70
TRACK 03 AUDIO
TITLE "In The Red"
PERFORMER "C.I.A."
INDEX 01 06:35:60
TRACK 04 AUDIO
TITLE "Buried Alive"
PERFORMER "C.I.A."
INDEX 01 10:22:02
TRACK 05 AUDIO
TITLE "N.A.S.A."
PERFORMER "C.I.A."
INDEX 01 13:28:50
TRACK 06 AUDIO
TITLE "Mind Over Matter"
PERFORMER "C.I.A."
INDEX 00 17:24:50
INDEX 01 17:25:52
TRACK 07 AUDIO
TITLE "Flight 103"
PERFORMER "C.I.A."
INDEX 01 20:30:02
TRACK 08 AUDIO
TITLE "Moby Dick Part 2"
PERFORMER "C.I.A."
INDEX 01 24:16:62
TRACK 09 AUDIO
TITLE "Turn To Stone"
PERFORMER "C.I.A."
INDEX 01 26:27:60
TRACK 10 AUDIO
TITLE "Samantha"
PERFORMER "C.I.A."
INDEX 01 29:26:30


Log
Exact Audio Copy V0.99 prebeta 5 from 4. May 2009

Отчёт EAC об извлечении, выполненном 13. февраля 2011, 10:46

C.I.A. / In The Red

Дисковод: TSSTcorpCDDVDW SH-S202N Adapter: 0 ID: 1

Режим чтения : Достоверность
Использование точного потока : Да
Отключение кэша аудио : Да
Использование указателей C2 : Нет

Коррекция смещения при чтении : 6
Способность читать области Lead-in и Lead-out : Нет
Заполнение пропущенных сэмплов тишиной : Да
Удаление блоков с тишиной в начале и конце : Нет
При вычислениях CRC использовались нулевые сэмплы : Да
Интерфейс : Встроенный Win32-интерфейс для Win NT/2000

Выходной формат : Пользовательский кодировщик
Выбранный битрейт : 768 kBit/s
Качество : Высокий
Добавление ID3-тэга : Нет
Утилита сжатия : C:\Program Files\Exact Audio Copy\FLAC\FLAC.EXE
Дополнительные параметры : -6 -V -T "ARTIST=%a" -T "TITLE=%t" -T "ALBUM=%g" -T "DATE=%y" -T "TRACKNUMBER=%n" -T "GENRE=%m" -T "COMMENT=%e" %s -o %d


TOC извлечённого CD

Трек | Старт | Длительность | Начальный сектор | Конечный сектор
---------------------------------------------------------------------
1 | 0:00.32 | 3:09.38 | 32 | 14244
2 | 3:09.70 | 3:25.65 | 14245 | 29684
3 | 6:35.60 | 3:46.17 | 29685 | 46651
4 | 10:22.02 | 3:06.48 | 46652 | 60649
5 | 13:28.50 | 3:57.02 | 60650 | 78426
6 | 17:25.52 | 3:04.25 | 78427 | 92251
7 | 20:30.02 | 3:46.60 | 92252 | 109261
8 | 24:16.62 | 2:10.73 | 109262 | 119084
9 | 26:27.60 | 2:58.45 | 119085 | 132479
10 | 29:26.30 | 3:51.20 | 132480 | 149824


Характеристики диапазона извлечения и сообщения об ошибках

Выбранный диапазон

Имя файла E:\Лоси\C\C.I.A. - In The Red.wav

Пиковый уровень 100.0 %
Качество диапазона 100.0 %
CRC копии 90469DDD
Копирование... OK

Ошибок не произошло


AccurateRip: сводка

Трек 1 точное извлечение (доверие 2) [56283299]
Трек 2 точное извлечение (доверие 2) [70F57E30]
Трек 3 точное извлечение (доверие 2) [4B608E44]
Трек 4 точное извлечение (доверие 2) [2D2E8FA6]
Трек 5 точное извлечение (доверие 2) [0C3BAA56]
Трек 6 точное извлечение (доверие 2) [183F367B]
Трек 7 точное извлечение (доверие 2) [8388B860]
Трек 8 точное извлечение (доверие 2) [40C5D45E]
Трек 9 точное извлечение (доверие 2) [08E1BBB9]
Трек 10 точное извлечение (доверие 2) [49E1FA8B]

Все треки извлечены точно

Конец отчёта


In The Red


Top
 Profile  
 
 
PostPosted: 02 Nov 2011 
Хиппей (support team)
User avatar
Joined: 30 Jul 2007
Posts: 119816
Lоcаtion: Киев (Kyiv, UA)
Age: 47
Name: Andrey
:thanx:

mirror: MultiUp l Narod

_________________


Top
 Profile E-mail  
 
 
PostPosted: 03 Nov 2011 
Труъ
User avatar
Joined: 14 Jul 2009
Posts: 158
Lоcаtion: Hell Is Here
Age: 50
Name: Adriano
Many Thanx ! :true:


Top
 Profile E-mail  
 
Display posts from previous:  Sort by  
Post new topic Reply to topic  [ 3 posts ] 

All times are UTC + 3 hours


Who is online

Users browsing this forum: No registered users and 2 guests


You cannot post new topics in this forum
You cannot reply to topics in this forum
You cannot edit your posts in this forum
You cannot delete your posts in this forum
You cannot post attachments in this forum

Search for:
Яндекс.Метрика
Powered by phpBB © 2000, 2002, 2005, 2007 phpBB Group