\m/ 80's metal \m/

Информационно-аналитический форум "80 см пыли" (In Search We Trust) "У нас никто никуда не спешит"
Me For You - http://me-4u.com
It is currently 19 Jan 2021

All times are UTC + 3 hours

Spoiler
Chat - temporary registration for foreign users (please leave your application here)







Post new topic Reply to topic  [ 3 posts ] 
Author Message
 
PostPosted: 14 Feb 2011 
Работнечег
User avatar
Joined: 28 Aug 2007
Posts: 6363
Lоcаtion: г. Москва
Age: 31
Name: Дима
Image
Band: Chariot
Album: Burning Ambition
Year: 2004
Label: Majestic Rock Records
Genre: NWOBHM
Coutry: UK
Format: Flac + Log + Cue + Covers
Size: 290 Mb

Line-Up:
Pete Franklin- vocals,guitars (Deeds)
Scott Biaggi- guitars
John Smith- bass
Jeff Braithwaite- drums


Tracklist:
1. Screams the Night 03:43
2. Meet My Match 03:36
3. Cradle to the Grave 03:43
4. Burning 03:47
5. Play to Win 03:13
6. Strangers 03:46
7. This Time You Lose 03:46
8. Wasted Years 04:51
9. So Blind 03:03
10. Heartless 04:48
Total playing time 38:26

Spectrum
Image

LOG
Exact Audio Copy V0.99 prebeta 5 from 4. May 2009

EAC extraction logfile from 11. December 2010, 16:00

Chariot / Burning Ambition

Used drive : PIONEER DVD-RW DVR-116D Adapter: 0 ID: 0

Read mode : Secure
Utilize accurate stream : Yes
Defeat audio cache : Yes
Make use of C2 pointers : No

Read offset correction : 96
Overread into Lead-In and Lead-Out : No
Fill up missing offset samples with silence : Yes
Delete leading and trailing silent blocks : No
Null samples used in CRC calculations : Yes
Used interface : Native Win32 interface for Win NT & 2000

Used output format : User Defined Encoder
Selected bitrate : 32 kBit/s
Quality : High
Add ID3 tag : No
Command line compressor : C:\Program Files\Exact Audio Copy\Flac\flac.exe
Additional command line options : -6 -V %s


TOC of the extracted CD

Track | Start | Length | Start sector | End sector
---------------------------------------------------------
1 | 0:00.00 | 3:41.30 | 0 | 16604
2 | 3:41.30 | 3:31.45 | 16605 | 32474
3 | 7:13.00 | 3:37.50 | 32475 | 48799
4 | 10:50.50 | 3:41.55 | 48800 | 65429
5 | 14:32.30 | 3:08.45 | 65430 | 79574
6 | 17:41.00 | 3:41.00 | 79575 | 96149
7 | 21:22.00 | 3:40.00 | 96150 | 112649
8 | 25:02.00 | 4:41.00 | 112650 | 133724
9 | 29:43.00 | 2:55.30 | 133725 | 146879
10 | 32:38.30 | 4:38.37 | 146880 | 167766


Range status and errors

Selected range

Filename D:\Музыка\Lossless\Chariot - The Burning Ambition (1986) (Remastered In 2004)\Chariot - Burning Ambition.wav

Peak level 99.2 %
Range quality 100.0 %
Copy CRC 10EBF4CF
Copy OK

No errors occurred


AccurateRip summary

Track 1 not present in database
Track 2 not present in database
Track 3 not present in database
Track 4 not present in database
Track 5 not present in database
Track 6 not present in database
Track 7 not present in database
Track 8 not present in database
Track 9 not present in database
Track 10 not present in database

None of the tracks are present in the AccurateRip database

End of status report

CUE
REM GENRE "Heavy Metal"
REM DATE 1986
REM DISCID 7D08BC0A
REM COMMENT "ExactAudioCopy v0.99pb5"
PERFORMER "Chariot"
TITLE "Burning Ambition"
FILE "Chariot - Burning Ambition.flac" WAVE
TRACK 01 AUDIO
TITLE "Screams The Night"
PERFORMER "Chariot"
FLAGS DCP
INDEX 01 00:00:00
TRACK 02 AUDIO
TITLE "Meet My Watch"
PERFORMER "Chariot"
FLAGS DCP
INDEX 01 03:41:30
TRACK 03 AUDIO
TITLE "Play To Win"
PERFORMER "Chariot"
FLAGS DCP
INDEX 01 07:13:00
TRACK 04 AUDIO
TITLE "Cradle To The Grave"
PERFORMER "Chariot"
FLAGS DCP
INDEX 01 10:50:50
TRACK 05 AUDIO
TITLE "Burning"
PERFORMER "Chariot"
FLAGS DCP
INDEX 01 14:32:30
TRACK 06 AUDIO
TITLE "Strangers"
PERFORMER "Chariot"
FLAGS DCP
INDEX 01 17:41:00
TRACK 07 AUDIO
TITLE "This Time You Lose"
PERFORMER "Chariot"
FLAGS DCP
INDEX 01 21:22:00
TRACK 08 AUDIO
TITLE "So Blind"
PERFORMER "Chariot"
FLAGS DCP
INDEX 01 25:02:00
TRACK 09 AUDIO
TITLE "Wasted Years"
PERFORMER "Chariot"
FLAGS DCP
INDEX 01 29:43:00
TRACK 10 AUDIO
TITLE "Heartless"
PERFORMER "Chariot"
FLAGS DCP
INDEX 01 32:38:30


Narod.Ru

Очень радует этот альбом :true: Всем советую, кто не слышал!


Top
 Profile E-mail  
 
 
PostPosted: 22 Feb 2011 
metallpaparazzy
User avatar
Joined: 20 Dec 2009
Posts: 674
Lоcаtion: Днепропетровск
Age: 45
Name: Геннадий
не слушал, возьму. :thanx:


Top
 Profile E-mail  
 
 
PostPosted: 24 Feb 2011 
Хиппей (support team)
User avatar
Joined: 30 Jul 2007
Posts: 119806
Lоcаtion: Киев (Kyiv, UA)
Age: 47
Name: Andrey
:true: Это труъ :thanx:

_________________


Top
 Profile E-mail  
 
Display posts from previous:  Sort by  
Post new topic Reply to topic  [ 3 posts ] 

All times are UTC + 3 hours


Who is online

Users browsing this forum: No registered users and 2 guests


You cannot post new topics in this forum
You cannot reply to topics in this forum
You cannot edit your posts in this forum
You cannot delete your posts in this forum
You cannot post attachments in this forum

Search for:
Яндекс.Метрика
Powered by phpBB © 2000, 2002, 2005, 2007 phpBB Group