\m/ 80's metal \m/

Информационно-аналитический форум "80 см пыли" (In Search We Trust) "У нас никто никуда не спешит"
Me For You - http://me-4u.com
It is currently 06 Dec 2021

All times are UTC + 3 hours

Spoiler
Chat - temporary registration for foreign users (please leave your application here)







Post new topic Reply to topic  [ 6 posts ] 
Author Message
 
PostPosted: 02 Feb 2011 
Работнечег
User avatar
Joined: 28 Aug 2007
Posts: 6392
Lоcаtion: г. Москва
Age: 32
Name: Дима
Image
Band: Chariot
Album: The Warrior
Year: 2004
Label: Majestic Rock Records
Genre: NWOBHM
Coutry: UK
Format: Flac + Log + Cue + Covers
Size: 280 Mb

Line-Up:
Pete Franklin- vocals,guitars (Deeds)
Scott Biaggi- guitars
John Smith- bass
Jeff Braithwaite- drums


Tracklist:
1. Love or Leave Me 03:17
2. Take Your Hands Off Me 03:11
3. Don't Forget 04:52
4. Run With the Pack 03:08
5. Warriors 04:08
6. When the Moon Shines 03:27
7. Power Games 03:14
8. Horizons 04:47
9. Evil Eye 03:07
10. Vigilante 03:54
Total playing time 37:05

LOG
Exact Audio Copy V0.99 prebeta 5 from 4. May 2009

EAC extraction logfile from 11. December 2010, 15:50

Chariot / The Warrior

Used drive : PIONEER DVD-RW DVR-116D Adapter: 0 ID: 0

Read mode : Secure
Utilize accurate stream : Yes
Defeat audio cache : Yes
Make use of C2 pointers : No

Read offset correction : 96
Overread into Lead-In and Lead-Out : No
Fill up missing offset samples with silence : Yes
Delete leading and trailing silent blocks : No
Null samples used in CRC calculations : Yes
Used interface : Native Win32 interface for Win NT & 2000

Used output format : User Defined Encoder
Selected bitrate : 32 kBit/s
Quality : High
Add ID3 tag : No
Command line compressor : C:\Program Files\Exact Audio Copy\Flac\flac.exe
Additional command line options : -6 -V %s


TOC of the extracted CD

Track | Start | Length | Start sector | End sector
---------------------------------------------------------
1 | 0:00.00 | 3:12.00 | 0 | 14399
2 | 3:12.00 | 3:09.00 | 14400 | 28574
3 | 6:21.00 | 4:44.00 | 28575 | 49874
4 | 11:05.00 | 2:53.50 | 49875 | 62899
5 | 13:58.50 | 4:11.25 | 62900 | 81749
6 | 18:10.00 | 3:24.00 | 81750 | 97049
7 | 21:34.00 | 3:11.25 | 97050 | 111399
8 | 24:45.25 | 4:43.50 | 111400 | 132674
9 | 29:29.00 | 3:04.50 | 132675 | 146524
10 | 32:33.50 | 4:17.62 | 146525 | 165861


Range status and errors

Selected range

Filename D:\Музыка\Lossless\Chariot - The Warrior (1984) (Remastered In 2004)\Chariot - The Warrior.wav

Peak level 99.6 %
Range quality 100.0 %
Copy CRC 1F5941E8
Copy OK

No errors occurred


AccurateRip summary

Track 1 accurately ripped (confidence 1) [E73BFF15]
Track 2 accurately ripped (confidence 1) [394C05BB]
Track 3 accurately ripped (confidence 1) [76DCDAF9]
Track 4 accurately ripped (confidence 1) [25E283E7]
Track 5 accurately ripped (confidence 1) [ED2B43A4]
Track 6 accurately ripped (confidence 1) [0D382926]
Track 7 accurately ripped (confidence 1) [29BE4225]
Track 8 accurately ripped (confidence 1) [B5D7E09A]
Track 9 accurately ripped (confidence 1) [628868C8]
Track 10 cannot be verified as accurate (confidence 1) [431267D9], AccurateRip returned [DBCD67F8]

9 track(s) accurately ripped
1 track(s) could not be verified as accurate

Some tracks could not be verified as accurate

End of status report

CUE
REM GENRE "Heavy Metal"
REM DATE 2004
REM DISCID 9308A30A
REM COMMENT "ExactAudioCopy v0.99pb5"
PERFORMER "Chariot"
TITLE "The Warrior"
FILE "Chariot - The Warrior.flac" WAVE
TRACK 01 AUDIO
TITLE "Love Or Leave Me"
PERFORMER "Chariot"
FLAGS DCP
INDEX 01 00:00:00
TRACK 02 AUDIO
TITLE "Take Your Hands Off Me"
PERFORMER "Chariot"
FLAGS DCP
INDEX 01 03:12:00
TRACK 03 AUDIO
TITLE "Don't Forget"
PERFORMER "Chariot"
FLAGS DCP
INDEX 01 06:21:00
TRACK 04 AUDIO
TITLE "Run With The Pack"
PERFORMER "Chariot"
FLAGS DCP
INDEX 01 11:05:00
TRACK 05 AUDIO
TITLE "Warriors"
PERFORMER "Chariot"
FLAGS DCP
INDEX 01 13:58:50
TRACK 06 AUDIO
TITLE "When The Moon Shines"
PERFORMER "Chariot"
FLAGS DCP
INDEX 01 18:10:00
TRACK 07 AUDIO
TITLE "Power Games"
PERFORMER "Chariot"
FLAGS DCP
INDEX 01 21:34:00
TRACK 08 AUDIO
TITLE "Horizons"
PERFORMER "Chariot"
FLAGS DCP
INDEX 01 24:45:25
TRACK 09 AUDIO
TITLE "Evil Eye"
PERFORMER "Chariot"
FLAGS DCP
INDEX 01 29:29:00
TRACK 10 AUDIO
TITLE "Vigilante"
PERFORMER "Chariot"
FLAGS DCP
INDEX 01 32:33:50

Spectrum
Image


Narod.Ru


Top
 Profile E-mail  
 
 
PostPosted: 02 Feb 2011 
А может смените мне статус?..
User avatar
Joined: 24 Dec 2008
Posts: 679
Age: 47
Name: Дмитрий
Спасибо!


Top
 Profile  
 
 
PostPosted: 03 Feb 2011 
Генеральный thrasher
User avatar
Joined: 03 Oct 2008
Posts: 3751
Lоcаtion: Ханты-Мансийский АО
Age: 46
Name: Сергей
Спасибо,Дима! :true:


Top
 Profile  
 
 
PostPosted: 20 Mar 2011 
metallpaparazzy
User avatar
Joined: 20 Dec 2009
Posts: 674
Lоcаtion: Днепропетровск
Age: 46
Name: Геннадий
Спасибо, заберу и я.


Top
 Profile E-mail  
 
 
PostPosted: 20 Mar 2011 
Thrasher
User avatar
Joined: 07 Oct 2007
Posts: 2782
Lоcаtion: Russia, Moscow
Age: 37
Name: Drunk & Evil
:true: :true: :true:

_________________
ВОДКА, БАБЫ И БЛЮЗ / 40° till death... :bodun:
One time we saw some hookers, but when we got closer, we realised it was Mötley Crüe. ©


Top
 Profile  
 
 
PostPosted: 03 Aug 2011 
Хиппей (support team)
User avatar
Joined: 30 Jul 2007
Posts: 123253
Lоcаtion: Киев (Kyiv, UA)
Age: 48
Name: Andrey
:thanx: :true:
mirror: MultiUp l Narod

_________________


Top
 Profile E-mail  
 
Display posts from previous:  Sort by  
Post new topic Reply to topic  [ 6 posts ] 

All times are UTC + 3 hours


Who is online

Users browsing this forum: No registered users and 1 guest


You cannot post new topics in this forum
You cannot reply to topics in this forum
You cannot edit your posts in this forum
You cannot delete your posts in this forum

Search for:
Яндекс.Метрика
Powered by phpBB © 2000, 2002, 2005, 2007 phpBB Group