\m/ 80's metal \m/

Информационно-аналитический форум "80 см пыли" (In Search We Trust) "У нас никто никуда не спешит"
Me For You - http://me-4u.com
It is currently 28 Jan 2021

All times are UTC + 3 hours

Spoiler
Chat - temporary registration for foreign users (please leave your application here)







Post new topic Reply to topic  [ 6 posts ] 
Author Message
 
PostPosted: 18 Sep 2010 
Генеральный thrasher
User avatar
Joined: 03 Oct 2008
Posts: 3751
Lоcаtion: Ханты-Мансийский АО
Age: 45
Name: Сергей
Image

Year:1999
Style:Heavy Metal
Country:Czech Republic
Audio:Flac+Cue+Log+Full Scans
Size:417Mb
Label:Popron Music

Line-Up:
Libor Kozelsky : Guitar
Radim Parizek : Drums
Jaroslav "Jarda" Barton : Guitar
Vaclav Vlasak : Bass
Stanislav "Standa" Hranicky : Vocals

Tracklist:
1. Ocelové srdce
2. Rock, Rock, Rock !
3. Nechoď dál
4. Už couvám
5. Už víme svý
6. Půlnoční
7. Revizor
8. Vzpomínky
9. Dej mi s tím pokoj
10. Zahradní slavnost
11. Tvá odvrácená tvář
12. Už zase mi scházíš
13. Hádej
14. Já se vzdávám

Cue
REM ACCURATERIPID 001d556b-01385364-d70d590e
REM DISCID D70D590E
REM COMMENT "ExactAudioCopy v0.99pb4"
REM DATE 1999
REM GENRE "Rock"
PERFORMER "Citron"
TITLE "The Best"
FILE "Citron - The Best.flac" WAVE
TRACK 01 AUDIO
TITLE "Ocelove srdce"
PERFORMER "Citron"
INDEX 01 00:00:00
TRACK 02 AUDIO
TITLE "Rock, rock, rock"
PERFORMER "Citron"
INDEX 01 04:43:62
TRACK 03 AUDIO
TITLE "Nechod dal"
PERFORMER "Citron"
INDEX 01 08:08:27
TRACK 04 AUDIO
TITLE "Uz couvam"
PERFORMER "Citron"
INDEX 01 12:17:02
TRACK 05 AUDIO
TITLE "Uz vime svy"
PERFORMER "Citron"
INDEX 01 16:53:17
TRACK 06 AUDIO
TITLE "Pulnocni"
PERFORMER "Citron"
INDEX 01 19:47:00
TRACK 07 AUDIO
TITLE "Revizor"
PERFORMER "Citron"
INDEX 01 24:48:12
TRACK 08 AUDIO
TITLE "Vzpominky"
PERFORMER "Citron"
INDEX 01 27:37:02
TRACK 09 AUDIO
TITLE "Dej mi s tim pokoj"
PERFORMER "Citron"
INDEX 01 32:33:62
TRACK 10 AUDIO
TITLE "Zahradni slavnost"
PERFORMER "Citron"
INDEX 01 36:30:62
TRACK 11 AUDIO
TITLE "Tva odvracena tvar"
PERFORMER "Citron"
INDEX 01 41:16:07
TRACK 12 AUDIO
TITLE "Uz zase mi schazis"
PERFORMER "Citron"
INDEX 01 44:31:34
TRACK 13 AUDIO
TITLE "Hadej"
PERFORMER "Citron"
INDEX 01 48:47:10
TRACK 14 AUDIO
TITLE "Ja se vzdavam"
PERFORMER "Citron"
INDEX 01 52:20:47


Log
CUERipper v2.0.9 Copyright (C) 2008-10 Gregory S. Chudov

EAC extraction logfile from 22. February 2011, 18:38

Citron / The Best

Used drive : TSSTcorp CDDVDW SE-S224Q Adapter: 1 ID: 0

Read mode : Secure
Utilize accurate stream : Yes
Defeat audio cache : Yes
Make use of C2 pointers : No

Read offset correction : 6
Overread into Lead-In and Lead-Out : No
Fill up missing offset samples with silence : Yes
Delete leading and trailing silent blocks : No
Null samples used in CRC calculations : Yes
Used interface : Native Win32 interface for Win NT & 2000

Used output format : Internal WAV Routines
Sample format : 44.100 Hz; 16 Bit; Stereo


TOC of the extracted CD

Track | Start | Length | Start sector | End sector
---------------------------------------------------------
1 | 0:00.00 | 4:43.62 | 0 | 21286
2 | 4:43.62 | 3:24.40 | 21287 | 36626
3 | 8:08.27 | 4:08.50 | 36627 | 55276
4 | 12:17.02 | 4:36.15 | 55277 | 75991
5 | 16:53.17 | 2:53.58 | 75992 | 89024
6 | 19:47.00 | 5:01.12 | 89025 | 111611
7 | 24:48.12 | 2:48.65 | 111612 | 124276
8 | 27:37.02 | 4:56.60 | 124277 | 146536
9 | 32:33.62 | 3:57.00 | 146537 | 164311
10 | 36:30.62 | 4:45.20 | 164312 | 185706
11 | 41:16.07 | 3:15.27 | 185707 | 200358
12 | 44:31.34 | 4:15.51 | 200359 | 219534
13 | 48:47.10 | 3:33.37 | 219535 | 235546
14 | 52:20.47 | 4:36.70 | 235547 | 256316


Range status and errors

Selected range

Filename C:\Users\oldrock\Music\Citron\1999 - The Best\Citron - The Best.wav

Peak level 97.7 %
Range quality 100.0 %
Test CRC 598A4815
Copy CRC 598A4815
Copy OK

No errors occurred


AccurateRip summary

Track 1 cannot be verified as accurate (confidence 2) [74605839], AccurateRip returned [484F41DF]
Track 2 cannot be verified as accurate (confidence 2) [F6F0740A], AccurateRip returned [E38B90FE]
Track 3 cannot be verified as accurate (confidence 2) [262F5E08], AccurateRip returned [57FD3F7C]
Track 4 cannot be verified as accurate (confidence 2) [F54F0537], AccurateRip returned [C6DE136F]
Track 5 cannot be verified as accurate (confidence 2) [97C61D65], AccurateRip returned [1EEBA71B]
Track 6 cannot be verified as accurate (confidence 2) [527E1077], AccurateRip returned [56A0AA39]
Track 7 cannot be verified as accurate (confidence 2) [DF44300E], AccurateRip returned [1C3C6054]
Track 8 cannot be verified as accurate (confidence 2) [C8B4A372], AccurateRip returned [9C1EA244]
Track 9 cannot be verified as accurate (confidence 2) [061BA59A], AccurateRip returned [65CA58DE]
Track 10 cannot be verified as accurate (confidence 2) [5C89ED2F], AccurateRip returned [EDDDCC03]
Track 11 cannot be verified as accurate (confidence 2) [D231A472], AccurateRip returned [119E33D0]
Track 12 cannot be verified as accurate (confidence 2) [C68DD8F7], AccurateRip returned [E532893F]
Track 13 cannot be verified as accurate (confidence 2) [4B311827], AccurateRip returned [15C9F603]
Track 14 cannot be verified as accurate (confidence 2) [FE9FF1AA], AccurateRip returned [9B552996]

No tracks could be verified as accurate
You may have a different pressing from the one(s) in the database

End of status report


Megaupload

Классические хиты группы Citron,перезаписанные с вернувшимся вокалистом Stanislav "Standa" Hranicky.


Last edited by thorbeorn on 15 Mar 2011, edited 2 times in total.

Top
 Profile  
 
 
PostPosted: 18 Sep 2010 
metallpaparazzy
User avatar
Joined: 20 Dec 2009
Posts: 674
Lоcаtion: Днепропетровск
Age: 45
Name: Геннадий
ностальжи... Rock, Rock, Rock ! до сих пор где-то в закромах лежит :true:
:thanx:


Top
 Profile E-mail  
 
 
PostPosted: 19 Sep 2010 
Хиппей (support team)
User avatar
Joined: 30 Jul 2007
Posts: 119981
Lоcаtion: Киев (Kyiv, UA)
Age: 47
Name: Andrey
:thanx:

_________________


Top
 Profile E-mail  
 
 
PostPosted: 15 Mar 2011 
Генеральный thrasher
User avatar
Joined: 03 Oct 2008
Posts: 3751
Lоcаtion: Ханты-Мансийский АО
Age: 45
Name: Сергей
Заменил потрэковый рип на цельный образ с полными сканами... :true:


Top
 Profile  
 
 
PostPosted: 26 Aug 2011 
Хиппей (support team)
User avatar
Joined: 30 Jul 2007
Posts: 119981
Lоcаtion: Киев (Kyiv, UA)
Age: 47
Name: Andrey
:thanx:
mirror: MultiUp l Narod

_________________


Top
 Profile E-mail  
 
 
PostPosted: 27 Aug 2011 
ТрэшЭрос
User avatar
Joined: 18 Jul 2011
Posts: 2307
Lоcаtion: Гулькевичи
Age: 46
Name: Александр
:thanx: :true:

_________________
Thrash no trash!!!


Top
 Profile E-mail  
 
Display posts from previous:  Sort by  
Post new topic Reply to topic  [ 6 posts ] 

All times are UTC + 3 hours


Who is online

Users browsing this forum: No registered users and 1 guest


You cannot post new topics in this forum
You cannot reply to topics in this forum
You cannot edit your posts in this forum
You cannot delete your posts in this forum
You cannot post attachments in this forum

Search for:
Яндекс.Метрика
Powered by phpBB © 2000, 2002, 2005, 2007 phpBB Group