\m/ 80's metal \m/

Информационно-аналитический форум "80 см пыли" (In Search We Trust) "У нас никто никуда не спешит"
Me For You - http://me-4u.com
It is currently 01 Dec 2021

All times are UTC + 3 hours

Spoiler
Chat - temporary registration for foreign users (please leave your application here)







Post new topic Reply to topic  [ 15 posts ] 
Author Message
 
PostPosted: 17 Sep 2010 
Генеральный thrasher
User avatar
Joined: 03 Oct 2008
Posts: 3751
Lоcаtion: Ханты-Мансийский АО
Age: 46
Name: Сергей
Image

Year:1992
Style:Heavy Metal
Country:Czech Republic
Audio:Ape+Cue+Log+Full Scans
Size:323Mb
Label:Direkt Records

Line-Up:
Ales Hubacek – zpev
Libor Kozelsky – kytara
Ladislav Krecmer – kytara
Pavel Silber – baskytara
Radim Parizek - bici

Tracklist:
01.Nejsem Tvuj Houpaci Kun
02.Blaznivej Sen
03.Sex Bomby
04.Srac
05.Dnes Se Trefim Do Cerneho
06.Cara Zivota
07.Linou Kuzi Mas
08.Jsem Sekac
09.Nevina Od Vina
10.Agnes
11.Revizor
12.Krizem Kraz

Cue
REM DATE 1992
REM DISCID AB0AD30C
REM COMMENT "ExactAudioCopy v0.99pb5"
PERFORMER "CITRON"
TITLE "Sex Bomby"
FILE "CITRON - Sex Bomby.ape" WAVE
TRACK 01 AUDIO
TITLE "Nejsem Tvuj Houpaci Kun"
PERFORMER "CITRON"
INDEX 00 00:00:00
INDEX 01 00:00:32
TRACK 02 AUDIO
TITLE "Blaznivej Sen"
PERFORMER "CITRON"
INDEX 00 03:34:12
INDEX 01 03:35:50
TRACK 03 AUDIO
TITLE "Sex Bomby"
PERFORMER "CITRON"
INDEX 00 08:49:50
INDEX 01 08:51:17
TRACK 04 AUDIO
TITLE "Srac"
PERFORMER "CITRON"
INDEX 00 11:27:50
INDEX 01 11:29:30
TRACK 05 AUDIO
TITLE "Dnes Se Trefim Do Cerneho"
PERFORMER "CITRON"
INDEX 00 15:12:52
INDEX 01 15:13:60
TRACK 06 AUDIO
TITLE "Cara Zivota"
PERFORMER "CITRON"
INDEX 00 19:43:15
INDEX 01 19:44:42
TRACK 07 AUDIO
TITLE "Linou Kizi Mas"
PERFORMER "CITRON"
INDEX 00 24:23:72
INDEX 01 24:26:42
TRACK 08 AUDIO
TITLE "Jsem Sekac"
PERFORMER "CITRON"
INDEX 00 28:14:02
INDEX 01 28:16:07
TRACK 09 AUDIO
TITLE "Nevina Od Vina"
PERFORMER "CITRON"
INDEX 00 31:52:50
INDEX 01 31:53:65
TRACK 10 AUDIO
TITLE "Agnes"
PERFORMER "CITRON"
INDEX 00 35:25:72
INDEX 01 35:27:22
TRACK 11 AUDIO
TITLE "Revizor"
PERFORMER "CITRON"
INDEX 00 38:35:02
INDEX 01 38:36:22
TRACK 12 AUDIO
TITLE "Krizem Kraz"
PERFORMER "CITRON"
INDEX 00 41:52:15
INDEX 01 41:54:35


Log
Exact Audio Copy V0.99 prebeta 5 from 4. May 2009

EAC extraction logfile from 9. December 2010, 10:44

CITRON / Sex Bomby

Used drive : TSSTcorpCDDVDW SH-S223F Adapter: 1 ID: 0

Read mode : Secure
Utilize accurate stream : Yes
Defeat audio cache : Yes
Make use of C2 pointers : No

Read offset correction : 6
Overread into Lead-In and Lead-Out : No
Fill up missing offset samples with silence : Yes
Delete leading and trailing silent blocks : No
Null samples used in CRC calculations : Yes
Used interface : Installed external ASPI interface

Used output format : Monkey's Audio Lossless Encoder
Selected bitrate : Fast Lossless Compression
Quality : High
Add ID3 tag : Yes
Command line compressor : D:\===NEWS1===\Monkey's Audio\MAC.exe
Use compression offset : 0


TOC of the extracted CD

Track | Start | Length | Start sector | End sector
---------------------------------------------------------
1 | 0:00.32 | 3:35.18 | 32 | 16174
2 | 3:35.50 | 5:15.42 | 16175 | 39841
3 | 8:51.17 | 2:38.13 | 39842 | 51704
4 | 11:29.30 | 3:44.30 | 51705 | 68534
5 | 15:13.60 | 4:30.57 | 68535 | 88841
6 | 19:44.42 | 4:42.00 | 88842 | 109991
7 | 24:26.42 | 3:49.40 | 109992 | 127206
8 | 28:16.07 | 3:37.58 | 127207 | 143539
9 | 31:53.65 | 3:33.32 | 143540 | 159546
10 | 35:27.22 | 3:09.00 | 159547 | 173721
11 | 38:36.22 | 3:18.13 | 173722 | 188584
12 | 41:54.35 | 4:16.55 | 188585 | 207839


Range status and errors

Selected range

Filename C:\CITRON - Sex Bomby.wav

Peak level 100.0 %
Range quality 100.0 %
Copy CRC FB9FCAA4
Copy OK

No errors occurred


AccurateRip summary

Track 1 not present in database
Track 2 not present in database
Track 3 not present in database
Track 4 not present in database
Track 5 not present in database
Track 6 not present in database
Track 7 not present in database
Track 8 not present in database
Track 9 not present in database
Track 10 not present in database
Track 11 not present in database
Track 12 not present in database

None of the tracks are present in the AccurateRip database

End of status report


SEX BOMBY


Last edited by thorbeorn on 15 Mar 2011, edited 1 time in total.

Top
 Profile  
 
 
PostPosted: 17 Sep 2010 
Хиппей (support team)
User avatar
Joined: 30 Jul 2007
Posts: 123186
Lоcаtion: Киев (Kyiv, UA)
Age: 48
Name: Andrey
:thanx:

_________________


Top
 Profile E-mail  
 
 
PostPosted: 17 Sep 2010 
Прокъмитолист
User avatar
Joined: 12 Aug 2007
Posts: 6878
Lоcаtion: Санктъ-Петербуркъ
Age: 54
Name: Олекъ
"богатая" какая обложечка :true: возьму заценить, спасибо, Сереж! :thanx:

_________________
прокъметол - это музыко, от которово есть прок (ы)


Top
 Profile  
 
 
PostPosted: 17 Sep 2010 
Хиппей (support team)
User avatar
Joined: 30 Jul 2007
Posts: 123186
Lоcаtion: Киев (Kyiv, UA)
Age: 48
Name: Andrey
Извращенец :crazy:

_________________


Top
 Profile E-mail  
 
 
PostPosted: 17 Sep 2010 
Прокъмитолист
User avatar
Joined: 12 Aug 2007
Posts: 6878
Lоcаtion: Санктъ-Петербуркъ
Age: 54
Name: Олекъ
Scatterbrain wrote:
Извращенец

что, неужели настолько отстойный альбом? :shok: :crazy:

_________________
прокъметол - это музыко, от которово есть прок (ы)


Top
 Profile  
 
 
PostPosted: 17 Sep 2010 
Хиппей (support team)
User avatar
Joined: 30 Jul 2007
Posts: 123186
Lоcаtion: Киев (Kyiv, UA)
Age: 48
Name: Andrey
spiralarch wrote:
неужели настолько отстойный альбом?

Тьху, я думал ты ради альбома качал :crazy:
Альбом великолепный, а вот картинки качать не труъ :nunu:

_________________


Top
 Profile E-mail  
 
 
PostPosted: 15 Mar 2011 
Генеральный thrasher
User avatar
Joined: 03 Oct 2008
Posts: 3751
Lоcаtion: Ханты-Мансийский АО
Age: 46
Name: Сергей
Потрэковый рип заменен на образ с полным комплектом сканов...


Top
 Profile  
 
 
PostPosted: 26 Aug 2011 
Хиппей (support team)
User avatar
Joined: 30 Jul 2007
Posts: 123186
Lоcаtion: Киев (Kyiv, UA)
Age: 48
Name: Andrey
:thanx:
miror: MultiUp l Narod

_________________


Top
 Profile E-mail  
 
 
PostPosted: 26 Aug 2011 
Генеральный thrasher
User avatar
Joined: 03 Oct 2008
Posts: 3751
Lоcаtion: Ханты-Мансийский АО
Age: 46
Name: Сергей
Друг в Прагу едет.Хочу заставить его прикупить сидюков Цитрона...


Top
 Profile  
 
 
PostPosted: 26 Aug 2011 
Хиппей (support team)
User avatar
Joined: 30 Jul 2007
Posts: 123186
Lоcаtion: Киев (Kyiv, UA)
Age: 48
Name: Andrey
Ой, там в магазинах дорого будет :fingal:

_________________


Top
 Profile E-mail  
 
 
PostPosted: 26 Aug 2011 
Power Metal Maniac
User avatar
Joined: 09 Aug 2008
Posts: 7484
Lоcаtion: Москва
Age: 43
Name: Егор
картинка порадовала - качаю :crazy: :blum:

_________________
Long Live Metal!


Top
 Profile  
 
 
PostPosted: 26 Aug 2011 
Доктор энтомологии
User avatar
Joined: 22 Jan 2009
Posts: 10422
Lоcаtion: Даугавпилс
Age: 46
Name: Алексей
Хорошая все же обложка. хрень наверное. даж не знаб стоит ли ознакомится в мптрях


Top
 Profile  
 
 
PostPosted: 26 Aug 2011 
Хиппей (support team)
User avatar
Joined: 30 Jul 2007
Posts: 123186
Lоcаtion: Киев (Kyiv, UA)
Age: 48
Name: Andrey
Нарезка для ознакомления :cow:

phpBB [youtube]

_________________


Top
 Profile E-mail  
 
 
PostPosted: 27 Aug 2011 
Пионэръ
Joined: 25 Aug 2011
Posts: 48
Lоcаtion: Worl
Name: Zoltan Tivesko
Haha, I love this artwork! :au:


Top
 Profile E-mail  
 
 
PostPosted: 27 Aug 2011 
ТрэшЭрос
User avatar
Joined: 18 Jul 2011
Posts: 2307
Lоcаtion: Гулькевичи
Age: 46
Name: Александр
:thanx:

_________________
Thrash no trash!!!


Top
 Profile E-mail  
 
Display posts from previous:  Sort by  
Post new topic Reply to topic  [ 15 posts ] 

All times are UTC + 3 hours


Who is online

Users browsing this forum: No registered users and 1 guest


You cannot post new topics in this forum
You cannot reply to topics in this forum
You cannot edit your posts in this forum
You cannot delete your posts in this forum

Search for:
Яндекс.Метрика
Powered by phpBB © 2000, 2002, 2005, 2007 phpBB Group