\m/ 80's metal \m/

Информационно-аналитический форум "80 см пыли" (In Search We Trust) "У нас никто никуда не спешит"
Me For You - http://me-4u.com
It is currently 06 Dec 2021

All times are UTC + 3 hours

Spoiler
Chat - temporary registration for foreign users (please leave your application here)







Post new topic Reply to topic  [ 7 posts ] 
Author Message
 
PostPosted: 17 Sep 2010 
Генеральный thrasher
User avatar
Joined: 03 Oct 2008
Posts: 3751
Lоcаtion: Ханты-Мансийский АО
Age: 46
Name: Сергей
Image

Year:1988 (1998 Re-Issue)
Style:Thrash Metal/Crossover
Country:U.S.A.
Audio:Flac+Cue+Log
Size:251Mb
Label:Century Media

Line-Up:
Chris Notaro - Vocals
Chuck Lenihan - Leas & Rhythm Guitars
Robbie Koebler - Lead Guitar
Gary Meskil - Bass
Dan Richardson - Drums

Tracklist:
01. Breakout
02. Jimmies Dream
03. Charge
04. Initial Shock
05. I Am He
06. The Connection
07. Rejuvenate
08. Remembering Tomorrow
09. Beast On My Back

Cue
REM COMMENT "ExactAudioCopy v0.99pb4"
PERFORMER "Crumbsuckers"
TITLE "Beast On My Back"
FILE "Crumbsuckers - Beast On My Back.flac" WAVE
TRACK 01 AUDIO
TITLE "Breakout"
PERFORMER "Crumbsuckers"
INDEX 01 00:00:00
TRACK 02 AUDIO
TITLE "Jimmies Dream"
PERFORMER "Crumbsuckers"
INDEX 00 05:04:20
INDEX 01 05:06:42
TRACK 03 AUDIO
TITLE "Charge"
PERFORMER "Crumbsuckers"
INDEX 00 08:17:20
INDEX 01 08:18:65
TRACK 04 AUDIO
TITLE "Initial Shock"
PERFORMER "Crumbsuckers"
INDEX 00 11:29:27
INDEX 01 11:31:52
TRACK 05 AUDIO
TITLE "I Am He"
PERFORMER "Crumbsuckers"
INDEX 00 16:29:17
INDEX 01 16:31:47
TRACK 06 AUDIO
TITLE "The Connection"
PERFORMER "Crumbsuckers"
INDEX 00 19:57:02
INDEX 01 19:58:07
TRACK 07 AUDIO
TITLE "Rejuvenate"
PERFORMER "Crumbsuckers"
INDEX 00 23:01:07
INDEX 01 23:03:07
TRACK 08 AUDIO
TITLE "Remembering Tomorrow"
PERFORMER "Crumbsuckers"
INDEX 00 26:50:72
INDEX 01 26:51:72
TRACK 09 AUDIO
TITLE "Beast On My Back"
PERFORMER "Crumbsuckers"
INDEX 00 31:50:51
INDEX 01 31:52:37


Log
Exact Audio Copy V0.99 prebeta 4 from 23. January 2008

Отчёт EAC об извлечении, выполненном 17. сентября 2010, 11:41

Crumbsuckers / Beast On My Back

Дисковод: TSSTcorpCDDVDW SH-S202N Adapter: 0 ID: 1

Режим чтения : Достоверность
Использование точного потока : Да
Отключение кэша аудио : Да
Использование указателей C2 : Нет

Коррекция смещения при чтении : 6
Способность читать области Lead-in и Lead-out : Нет
Заполнение пропущенных сэмплов тишиной : Да
Удаление блоков с тишиной в начале и конце : Нет
При вычислениях CRC использовались нулевые сэмплы : Да
Интерфейс : Установленный внешний ASPI-интерфейс

Выходной формат : Пользовательский кодировщик
Выбранный битрейт : 768 kBit/s
Качество : Высокий
Добавление ID3-тэга : Нет
Утилита сжатия : C:\Program Files\Exact Audio Copy\FLAC\FLAC.EXE
Дополнительные параметры : -6 -V -T "ARTIST=%a" -T "TITLE=%t" -T "ALBUM=%g" -T "DATE=%y" -T "TRACKNUMBER=%n" -T "GENRE=%m" -T "COMMENT=%e" %s -o %d


TOC извлечённого CD

Трек | Старт | Длительность | Начальный сектор | Конечный сектор
---------------------------------------------------------------------
1 | 0:00.00 | 5:06.42 | 0 | 22991
2 | 5:06.42 | 3:12.23 | 22992 | 37414
3 | 8:18.65 | 3:12.62 | 37415 | 51876
4 | 11:31.52 | 4:59.70 | 51877 | 74371
5 | 16:31.47 | 3:26.35 | 74372 | 89856
6 | 19:58.07 | 3:05.00 | 89857 | 103731
7 | 23:03.07 | 3:48.65 | 103732 | 120896
8 | 26:51.72 | 5:00.40 | 120897 | 143436
9 | 31:52.37 | 3:04.15 | 143437 | 157251


Характеристики диапазона извлечения и сообщения об ошибках

Выбранный диапазон

Имя файла F:\Лоси\C\Crumbsuckers - Beast On My Back.wav

Пиковый уровень 99.9 %
Качество диапазона 100.0 %
CRC копии 79A4ABEA
Копирование... OK

Ошибок не произошло


AccurateRip: сводка

Трек 1 точное извлечение (доверие 2) [8659A248]
Трек 2 точное извлечение (доверие 2) [1A4911DE]
Трек 3 точное извлечение (доверие 2) [F3BDF5F8]
Трек 4 точное извлечение (доверие 2) [D67B349D]
Трек 5 точное извлечение (доверие 2) [3B55D6BA]
Трек 6 точное извлечение (доверие 2) [366ACF96]
Трек 7 точное извлечение (доверие 2) [8ED00A81]
Трек 8 точное извлечение (доверие 2) [A78B0D89]
Трек 9 точное извлечение (доверие 2) [C8E10E81]

Все треки извлечены точно

Конец отчёта


Beast On My Back

Рип с моего диска.Только вчера получил.Enjoy!


Last edited by thorbeorn on 05 Jul 2012, edited 1 time in total.

Top
 Profile  
 
 
PostPosted: 17 Sep 2010 
дядя Миша
User avatar
Joined: 17 Oct 2008
Posts: 3633
Lоcаtion: USSR
Age: 59
Name: Khy
Спасибо! У меня винил был когда то :true:


Top
 Profile  
 
 
PostPosted: 17 Sep 2010 
Хиппей (support team)
User avatar
Joined: 30 Jul 2007
Posts: 123253
Lоcаtion: Киев (Kyiv, UA)
Age: 48
Name: Andrey
:thanx:

_________________


Top
 Profile E-mail  
 
 
PostPosted: 17 Sep 2010 
Генеральный thrasher
User avatar
Joined: 03 Oct 2008
Posts: 3751
Lоcаtion: Ханты-Мансийский АО
Age: 46
Name: Сергей
Сканы в комплекте.Внутри.Правда буклетик скудный...


Top
 Profile  
 
 
PostPosted: 17 Sep 2010 
Хиппей (support team)
User avatar
Joined: 30 Jul 2007
Posts: 123253
Lоcаtion: Киев (Kyiv, UA)
Age: 48
Name: Andrey
thorbeorn wrote:
буклетик скудный...

Ничё, растянем :true:

_________________


Top
 Profile E-mail  
 
 
PostPosted: 17 Sep 2010 
Motörheadache
User avatar
Joined: 04 Feb 2010
Posts: 1294
Lоcаtion: Впереди- горы,позади-степи
Age: 48
Name: Александр
о-о-о...классика.... :true: :thanx:

_________________
Eine Nation, Ein Land, Eine Schnaps!

Наш священный долг:защищать Родину,и соблюдать правила личной гигиены....!


Top
 Profile E-mail  
 
 
PostPosted: 17 Sep 2010 
Thrasher
User avatar
Joined: 07 Oct 2007
Posts: 2782
Lоcаtion: Russia, Moscow
Age: 37
Name: Drunk & Evil
:true: :thanx:

_________________
ВОДКА, БАБЫ И БЛЮЗ / 40° till death... :bodun:
One time we saw some hookers, but when we got closer, we realised it was Mötley Crüe. ©


Top
 Profile  
 
Display posts from previous:  Sort by  
Post new topic Reply to topic  [ 7 posts ] 

All times are UTC + 3 hours


Who is online

Users browsing this forum: No registered users and 1 guest


You cannot post new topics in this forum
You cannot reply to topics in this forum
You cannot edit your posts in this forum
You cannot delete your posts in this forum

Search for:
Яндекс.Метрика
cron
Powered by phpBB © 2000, 2002, 2005, 2007 phpBB Group