\m/ 80's metal \m/

Информационно-аналитический форум "80 см пыли" (In Search We Trust) "У нас никто никуда не спешит"
Me For You - http://me-4u.com
It is currently 06 Dec 2021

All times are UTC + 3 hours

Spoiler
Chat - temporary registration for foreign users (please leave your application here)







Post new topic Reply to topic  [ 10 posts ] 
Author Message
 
PostPosted: 31 Aug 2010 
ыыыы
User avatar
Joined: 17 May 2009
Posts: 952
Lоcаtion: Пушкино, МО
Age: 43
Name: Дмитрий
ImageImageImageImage

Жанр: Heavy Metal
Происхождение исполнителя: США
Год издания: 1989
Год издания данного носителя: 1989
Страна-производитель носителя: Япония
Аудио кодек: FLAC
Тип рипа: image+.cue
Битрейт аудио: lossless
Продолжительность: 17:51
Рип: Собственный
Лейбл: ROADRUNNER/SMS
Каталоговый номер: MP12-5337
Матрица: MP12-5337-A1C 11 (JVC)

Треклист:
1. Lonely (remix) 04:20
2. In Dark Places 07:01
3. Burning Bridges 06:30

"Куй"
REM GENRE "Heavy Metal"
REM DATE 1988
REM DISCID 1D042F03
REM COMMENT "ExactAudioCopy v0.99pb5"
PERFORMER "Crimson Glory"
TITLE "Lonely [MP12-5337]"
FILE "Crimson Glory - Lonely [MP12-5337].flac" WAVE
TRACK 01 AUDIO
TITLE "Lonely (Remix)"
PERFORMER "Crimson Glory"
INDEX 00 00:00:00
INDEX 01 00:00:37
TRACK 02 AUDIO
TITLE "In Dark Places"
PERFORMER "Crimson Glory"
INDEX 00 04:17:40
INDEX 01 04:20:12
TRACK 03 AUDIO
TITLE "Burning Bridges"
PERFORMER "Crimson Glory"
INDEX 00 11:19:40
INDEX 01 11:21:35


"Лог"
Exact Audio Copy V0.99 prebeta 5 from 4. May 2009

Отчёт EAC об извлечении, выполненном 31. августа 2010, 13:49

Crimson Glory / Lonely [MP12-5337]

Дисковод: Optiarc DVD RW AD-7200A Adapter: 1 ID: 0

Режим чтения : Достоверность
Использование точного потока : Да
Отключение кэша аудио : Да
Использование указателей C2 : Нет

Коррекция смещения при чтении : 48
Способность читать области Lead-in и Lead-out : Нет
Заполнение пропущенных сэмплов тишиной : Да
Удаление блоков с тишиной в начале и конце : Нет
При вычислениях CRC использовались нулевые сэмплы : Да
Интерфейс : Встроенный Win32-интерфейс для Win NT/2000

Выходной формат : Пользовательский кодировщик
Выбранный битрейт : 128 kBit/s
Качество : Высокий
Добавление ID3-тэга : Нет
Утилита сжатия : C:\Program Files\Exact Audio Copy\Flac\flac.exe
Дополнительные параметры : -8 -V -T "artist=%a" -T "title=%t" -T "album=%g" -T "date=%y" -T "tracknumber=%n" -T "genre=%m" -T "comment=EAC


TOC извлечённого CD

Трек | Старт | Длительность | Начальный сектор | Конечный сектор
---------------------------------------------------------------------
1 | 0:00.37 | 4:19.50 | 37 | 19511
2 | 4:20.12 | 7:01.23 | 19512 | 51109
3 | 11:21.35 | 6:29.60 | 51110 | 80344


Характеристики диапазона извлечения и сообщения об ошибках

Выбранный диапазон

Имя файла Y:\Музыка\Crimson Glory\1988 Lonely\Crimson Glory - Lonely [MP12-5337].wav

Пиковый уровень 100.0 %
Качество диапазона 99.9 %
CRC копии 7A7991F8
Копирование... OK

Ошибок не произошло


AccurateRip: сводка

Трек 1 нет в базе данных
Трек 2 нет в базе данных
Трек 3 нет в базе данных

Ни одного трека нет в базе AccurateRip

Конец отчёта


Состав:
Vocals: Midnight
Guitars: Ben Jackson
Guitars: Jon Drenning
Bass: Jeff Lords
Drums: Dana Burnell

MP12-5337

_________________
Витасу до Даймонда как Алсу до Руссоса | При переразмещении - спрашивать разрешение!!


Last edited by iezuit on 31 Aug 2010, edited 1 time in total.

Top
 Profile  
 
 
PostPosted: 31 Aug 2010 
Персональный статус
Joined: 14 May 2010
Posts: 236
Age: 40
Name: Денис
:true:


Top
 Profile  
 
 
PostPosted: 31 Aug 2010 
ыыыы
User avatar
Joined: 17 May 2009
Posts: 952
Lоcаtion: Пушкино, МО
Age: 43
Name: Дмитрий
а да, вчера я был малость того ))) винца попил :bodun:

_________________
Витасу до Даймонда как Алсу до Руссоса | При переразмещении - спрашивать разрешение!!


Top
 Profile  
 
 
PostPosted: 31 Aug 2010 
Персональный статус
Joined: 14 May 2010
Posts: 236
Age: 40
Name: Денис
всё штатно. :blum:

на рисунке "CG88-Inside2.jpg", описали всё действия по поломке данного CD. :shok:


Top
 Profile  
 
 
PostPosted: 31 Aug 2010 
ыыыы
User avatar
Joined: 17 May 2009
Posts: 952
Lоcаtion: Пушкино, МО
Age: 43
Name: Дмитрий
ну да))) по идее- нижнюю часть надо отломать и в итоге должен получиться не прямоугольник, как сейчас, а квадрат )) я вот думаю- неужели кто-то так делал по-варварски? да еще и обишки выкидывают- и такие есть))

_________________
Витасу до Даймонда как Алсу до Руссоса | При переразмещении - спрашивать разрешение!!


Top
 Profile  
 
 
PostPosted: 31 Aug 2010 
Персональный статус
Joined: 14 May 2010
Posts: 236
Age: 40
Name: Денис
нормальные японцы в 1989 так и делали скорее всего. а ненормальные, теперь богатые.


Top
 Profile  
 
 
PostPosted: 31 Aug 2010 
Хиппей (support team)
User avatar
Joined: 30 Jul 2007
Posts: 123253
Lоcаtion: Киев (Kyiv, UA)
Age: 48
Name: Andrey
:thanx:

_________________


Top
 Profile E-mail  
 
 
PostPosted: 31 Aug 2010 
ыыыы
User avatar
Joined: 17 May 2009
Posts: 952
Lоcаtion: Пушкино, МО
Age: 43
Name: Дмитрий
виноват-исправил на 89 год :fingal:

_________________
Витасу до Даймонда как Алсу до Руссоса | При переразмещении - спрашивать разрешение!!


Top
 Profile  
 
 
PostPosted: 31 Aug 2010 
Персональный статус
Joined: 14 May 2010
Posts: 236
Age: 40
Name: Денис
во-во.. я тоже когда смотрел удивился, но потом забылось.


Top
 Profile  
 
 
PostPosted: 05 Apr 2013 
Хиппей (support team)
User avatar
Joined: 30 Jul 2007
Posts: 123253
Lоcаtion: Киев (Kyiv, UA)
Age: 48
Name: Andrey
mirror: F-Bit l Narod

Чего сказать по минику?
Классика жанра, 10 из 10 :meloman:

_________________


Top
 Profile E-mail  
 
Display posts from previous:  Sort by  
Post new topic Reply to topic  [ 10 posts ] 

All times are UTC + 3 hours


Who is online

Users browsing this forum: No registered users and 1 guest


You cannot post new topics in this forum
You cannot reply to topics in this forum
You cannot edit your posts in this forum
You cannot delete your posts in this forum

Search for:
Яндекс.Метрика
Powered by phpBB © 2000, 2002, 2005, 2007 phpBB Group