\m/ 80's metal \m/

Информационно-аналитический форум "80 см пыли" (In Search We Trust) "У нас никто никуда не спешит"
Me For You - http://me-4u.com
It is currently 24 Jan 2021

All times are UTC + 3 hours

Spoiler
Chat - temporary registration for foreign users (please leave your application here)







Post new topic Reply to topic  [ 3 posts ] 
Author Message
 
PostPosted: 18 Jul 2010 
Хиппей (support team)
User avatar
Joined: 30 Jul 2007
Posts: 119887
Lоcаtion: Киев (Kyiv, UA)
Age: 47
Name: Andrey
Capricorn - 1993 - Capricorn [flac]

Image

Genre: Speed Power Heavy
Location: Germany
Format: flac+cue+log+covers
Size: 324 Mb


Line-up:
Adrian Hahn - Vocals/Bass
David Hofmann - Guitar
Stefan Arnold - Drums

    1. Mob In The Hood - 03:48
    2. One Shot From Murder - 03:22
    3. Burn - 03:52
    4. Light Up Your Mind - 04:07
    5. Lonely is the World - 04:02
    6. Mr. Vorhees - 04:40
    7. Bomb Eden - 04:19
    8. Shotdown Downtown - 04:14
    9. The Harder They Fall - 02:59
    10. Long Way From Home - 04:17
    11. Exceeding The Limits Of Pain - 03:28

    TPT: 44:00

MultiUp l Narod

Ripped by speedica fron MMT :thanx:

log
Exact Audio Copy V0.99 prebeta 4 from 23. January 2008

EAC extraction logfile from 18. May 2009, 22:06

Capricorn / Capricorn

Used drive : PIONEER DVD-RW DVR-106D Adapter: 1 ID: 1

Read mode : Secure
Utilize accurate stream : Yes
Defeat audio cache : Yes
Make use of C2 pointers : No

Read offset correction : 48
Overread into Lead-In and Lead-Out : No
Fill up missing offset samples with silence : Yes
Delete leading and trailing silent blocks : No
Null samples used in CRC calculations : Yes
Used interface : Installed external ASPI interface

Used output format : User Defined Encoder
Selected bitrate : 32 kBit/s
Quality : High
Add ID3 tag : No
Command line compressor : C:\Program Files\Exact Audio Copy\Flac\flac.exe
Additional command line options : -6 -V %s


TOC of the extracted CD

Track | Start | Length | Start sector | End sector
---------------------------------------------------------
1 | 0:00.00 | 3:48.27 | 0 | 17126
2 | 3:48.27 | 3:22.25 | 17127 | 32301
3 | 7:10.52 | 3:52.48 | 32302 | 49749
4 | 11:03.25 | 4:07.30 | 49750 | 68304
5 | 15:10.55 | 4:02.52 | 68305 | 86506
6 | 19:13.32 | 4:40.18 | 86507 | 107524
7 | 23:53.50 | 4:19.00 | 107525 | 126949
8 | 28:12.50 | 4:14.00 | 126950 | 145999
9 | 32:26.50 | 2:59.02 | 146000 | 159426
10 | 35:25.52 | 4:17.00 | 159427 | 178701
11 | 39:42.52 | 3:28.58 | 178702 | 194359


Range status and errors

Selected range

Filename K:\metalmadness\Capricorn - Capricorn.wav

Peak level 98.0 %
Range quality 100.0 %
Copy CRC A19190BC
Copy OK

No errors occurred


AccurateRip summary

Track 1 not present in database
Track 2 not present in database
Track 3 not present in database
Track 4 not present in database
Track 5 not present in database
Track 6 not present in database
Track 7 not present in database
Track 8 not present in database
Track 9 not present in database
Track 10 not present in database
Track 11 not present in database

None of the tracks are present in the AccurateRip database

End of status report


cue
REM GENRE "Heavy Metal"
REM DATE 1993
REM DISCID 8D0A1F0B
REM COMMENT "ExactAudioCopy v0.99pb4"
PERFORMER "Capricorn"
TITLE "Capricorn"
FILE "Capricorn - Capricorn.flac" WAVE
TRACK 01 AUDIO
TITLE "Mob In The 'Hood"
PERFORMER "Capricorn"
INDEX 01 00:00:00
TRACK 02 AUDIO
TITLE "One Shot From Murder"
PERFORMER "Capricorn"
INDEX 01 03:48:27
TRACK 03 AUDIO
TITLE "Burn"
PERFORMER "Capricorn"
INDEX 01 07:10:52
TRACK 04 AUDIO
TITLE "Light Up Your Mind"
PERFORMER "Capricorn"
INDEX 00 11:02:00
INDEX 01 11:03:25
TRACK 05 AUDIO
TITLE "Lonely Is The World"
PERFORMER "Capricorn"
INDEX 00 15:07:05
INDEX 01 15:10:55
TRACK 06 AUDIO
TITLE "Mr. Voorhees"
PERFORMER "Capricorn"
INDEX 01 19:13:32
TRACK 07 AUDIO
TITLE "Bomb Eden"
PERFORMER "Capricorn"
INDEX 00 23:52:70
INDEX 01 23:53:50
TRACK 08 AUDIO
TITLE "Shotdown Downtown"
PERFORMER "Capricorn"
INDEX 00 28:12:12
INDEX 01 28:12:50
TRACK 09 AUDIO
TITLE "The Harder They Fall"
PERFORMER "Capricorn"
INDEX 00 32:26:12
INDEX 01 32:26:50
TRACK 10 AUDIO
TITLE "Long Way Home"
PERFORMER "Capricorn"
INDEX 00 35:25:17
INDEX 01 35:25:52
TRACK 11 AUDIO
TITLE "Exceeding The Limits Of Pain"
PERFORMER "Capricorn"
INDEX 00 39:41:27
INDEX 01 39:42:52

_________________


Top
 Profile E-mail  
 
 
PostPosted: 20 Jul 2010 
Motörheadache
User avatar
Joined: 04 Feb 2010
Posts: 1294
Lоcаtion: Впереди- горы,позади-степи
Age: 47
Name: Александр
А вот и нема у мене его.....
Благодарствую,Саныч ! :thanx:

_________________
Eine Nation, Ein Land, Eine Schnaps!

Наш священный долг:защищать Родину,и соблюдать правила личной гигиены....!


Top
 Profile E-mail  
 
 
PostPosted: 20 Jul 2010 
Хиппей (support team)
User avatar
Joined: 30 Jul 2007
Posts: 119887
Lоcаtion: Киев (Kyiv, UA)
Age: 47
Name: Andrey
Кажись кто-то его просил еще. Вроде Игорь :vic:

_________________


Top
 Profile E-mail  
 
Display posts from previous:  Sort by  
Post new topic Reply to topic  [ 3 posts ] 

All times are UTC + 3 hours


Who is online

Users browsing this forum: No registered users and 1 guest


You cannot post new topics in this forum
You cannot reply to topics in this forum
You cannot edit your posts in this forum
You cannot delete your posts in this forum
You cannot post attachments in this forum

Search for:
Яндекс.Метрика
cron
Powered by phpBB © 2000, 2002, 2005, 2007 phpBB Group