\m/ 80's metal \m/

Информационно-аналитический форум "80 см пыли" (In Search We Trust) "У нас никто никуда не спешит"
Me For You - http://me-4u.com
It is currently 28 Jan 2021

All times are UTC + 3 hours

Spoiler
Chat - temporary registration for foreign users (please leave your application here)







Post new topic Reply to topic  [ 3 posts ] 
Author Message
 
PostPosted: 11 Jun 2010 
ыыыы
User avatar
Joined: 17 May 2009
Posts: 952
Lоcаtion: Пушкино, МО
Age: 42
Name: Дмитрий
Image


Жанр: Progressive Metal/Heavy Metal
Происхождение исполнителя: США
Год издания: 1988
Год издания данного носителя: 1988
Страна-производитель носителя: Япония
Аудио кодек: FLAC
Тип рипа: image+.cue
Битрейт аудио: lossless
Продолжительность: 50:26
Рип: Собственный
Лейбл: ROADRUNNER/SMS
Каталоговый номер: MP28-5334
Матрица: MP28-5334-A1E 11 (JVC)

Треклист:
1. Lady of Winter 03:59
2. Red Sharks 04:49
3. Painted Skies 05:13
4. Masque of the Red Death 04:13
5. In Dark Places 06:59
6. Where Dragons Rule 05:05
7. Lonely 05:17
8. Burning Bridges 06:29
9. Eternal World 03:50
10. Transcendence 04:31

"Куй"
REM GENRE Metal
REM DATE 1988
REM DISCID 770BD20A
REM COMMENT "ExactAudioCopy v0.99pb5"
PERFORMER "Crimson Glory"
TITLE "Transcendence [MP28-5334]"
FILE "Crimson Glory - Transcendence [MP28-5334].flac" WAVE
TRACK 01 AUDIO
TITLE "Lady Of Winter"
PERFORMER "Crimson Glory"
INDEX 00 00:00:00
INDEX 01 00:00:37
TRACK 02 AUDIO
TITLE "Red Sharks"
PERFORMER "Crimson Glory"
INDEX 00 03:58:62
INDEX 01 03:59:32
TRACK 03 AUDIO
TITLE "Painted Skies"
PERFORMER "Crimson Glory"
INDEX 00 08:47:27
INDEX 01 08:48:02
TRACK 04 AUDIO
TITLE "Masque Of The Red Death"
PERFORMER "Crimson Glory"
INDEX 00 14:00:18
INDEX 01 14:01:20
TRACK 05 AUDIO
TITLE "In Dark Places"
PERFORMER "Crimson Glory"
INDEX 00 18:12:37
INDEX 01 18:14:10
TRACK 06 AUDIO
TITLE "Where Dragons Rule"
PERFORMER "Crimson Glory"
INDEX 00 25:12:74
INDEX 01 25:13:37
TRACK 07 AUDIO
TITLE "Lonely"
PERFORMER "Crimson Glory"
INDEX 00 30:17:21
INDEX 01 30:18:15
TRACK 08 AUDIO
TITLE "Burning Bridges"
PERFORMER "Crimson Glory"
INDEX 00 35:34:47
INDEX 01 35:35:10
TRACK 09 AUDIO
TITLE "Eternal World"
PERFORMER "Crimson Glory"
INDEX 00 42:03:06
INDEX 01 42:04:47
TRACK 10 AUDIO
TITLE "Transcendence"
PERFORMER "Crimson Glory"
INDEX 01 45:54:70


"Лог"
Exact Audio Copy V0.99 prebeta 5 from 4. May 2009

Отчёт EAC об извлечении, выполненном 11. июня 2010, 22:11

Crimson Glory / Transcendence [MP28-5334]

Дисковод: MATSHITADVD-RAM UJ-850S Adapter: 0 ID: 0

Режим чтения : Достоверность
Использование точного потока : Да
Отключение кэша аудио : Да
Использование указателей C2 : Нет

Коррекция смещения при чтении : 102
Способность читать области Lead-in и Lead-out : Нет
Заполнение пропущенных сэмплов тишиной : Да
Удаление блоков с тишиной в начале и конце : Нет
При вычислениях CRC использовались нулевые сэмплы : Да
Интерфейс : Установленный внешний ASPI-интерфейс

Выходной формат : Пользовательский кодировщик
Выбранный битрейт : 128 kBit/s
Качество : Высокий
Добавление ID3-тэга : Нет
Утилита сжатия : C:\Program Files\Exact Audio Copy\Flac\flac.exe
Дополнительные параметры : -6 -V -T "artist=%a" -T "title=%t" -T "album=%g" -T "date=%y" -T "tracknumber=%n" -T "genre=%m" -T "comment=EAC 0.99beta5 / FLAC 1.1.0 q6" %s


TOC извлечённого CD

Трек | Старт | Длительность | Начальный сектор | Конечный сектор
---------------------------------------------------------------------
1 | 0:00.37 | 3:58.70 | 37 | 17956
2 | 3:59.32 | 4:48.45 | 17957 | 39601
3 | 8:48.02 | 5:13.18 | 39602 | 63094
4 | 14:01.20 | 4:12.65 | 63095 | 82059
5 | 18:14.10 | 6:59.27 | 82060 | 113511
6 | 25:13.37 | 5:04.53 | 113512 | 136364
7 | 30:18.15 | 5:16.70 | 136365 | 160134
8 | 35:35.10 | 6:29.37 | 160135 | 189346
9 | 42:04.47 | 3:50.23 | 189347 | 206619
10 | 45:54.70 | 4:31.22 | 206620 | 226966


Характеристики диапазона извлечения и сообщения об ошибках

Выбранный диапазон

Имя файла Y:\Музыка\Crimson Glory\1988 Transcendence\Crimson Glory - Transcendence [MP28-5334].wav

Пиковый уровень 100.0 %
Качество диапазона 100.0 %
CRC копии CCEC8201
Копирование... OK

Ошибок не произошло


AccurateRip: сводка

Трек 1 точное извлечение (доверие 1) [BCAC37CD]
Трек 2 точное извлечение (доверие 1) [6BACD072]
Трек 3 точное извлечение (доверие 1) [0D0FF02C]
Трек 4 точное извлечение (доверие 1) [19687602]
Трек 5 точное извлечение (доверие 1) [EF1D983B]
Трек 6 точное извлечение (доверие 1) [2D3ADD0B]
Трек 7 точное извлечение (доверие 1) [E8DC8496]
Трек 8 точное извлечение (доверие 1) [35A5FB9B]
Трек 9 точное извлечение (доверие 1) [EB040BF4]
Трек 10 точное извлечение (доверие 1) [5928E866]

Все треки извлечены точно


Состав:
Midnight: Vocals
Jon Drenning: Lead Guitar
Ben Jackson: Rhythm Guitar
Jeff Lords: Bass Guitar
Dana Burnell: Drums

MP28-5334

_________________
Витасу до Даймонда как Алсу до Руссоса | При переразмещении - спрашивать разрешение!!


Top
 Profile  
 
 
PostPosted: 12 Aug 2010 
ыыыы
User avatar
Joined: 17 May 2009
Posts: 952
Lоcаtion: Пушкино, МО
Age: 42
Name: Дмитрий
Такую вот штучку поимел
Image

_________________
Витасу до Даймонда как Алсу до Руссоса | При переразмещении - спрашивать разрешение!!


Top
 Profile  
 
 
PostPosted: 12 Aug 2010 
Хиппей (support team)
User avatar
Joined: 30 Jul 2007
Posts: 119981
Lоcаtion: Киев (Kyiv, UA)
Age: 47
Name: Andrey
Красивые картинки и бублик :true:

_________________


Top
 Profile E-mail  
 
Display posts from previous:  Sort by  
Post new topic Reply to topic  [ 3 posts ] 

All times are UTC + 3 hours


Who is online

Users browsing this forum: No registered users and 1 guest


You cannot post new topics in this forum
You cannot reply to topics in this forum
You cannot edit your posts in this forum
You cannot delete your posts in this forum
You cannot post attachments in this forum

Search for:
Яндекс.Метрика
Powered by phpBB © 2000, 2002, 2005, 2007 phpBB Group