\m/ 80's metal \m/

Информационно-аналитический форум "80 см пыли" (In Search We Trust) "У нас никто никуда не спешит"
Me For You - http://me-4u.com
It is currently 06 Dec 2021

All times are UTC + 3 hours

Spoiler
Chat - temporary registration for foreign users (please leave your application here)







Post new topic Reply to topic  [ 1 post ] 
Author Message
 
PostPosted: 05 May 2010 
А может смените мне статус?..
User avatar
Joined: 22 Nov 2008
Posts: 981
Lоcаtion: Schelcovo,Russia
Age: 50
Name: Сергей
Image

Genre:Power Metal
Year: 1992
Country: Germany
Bitrate: flac+cue+log+ all scans
Size: 412Mb

Track List:
1.Under Pressure
3.Metamorphic Dreamer
4.Skyline of the World
5.They Will Always Find a Reason
6.The Snake
7.They Want More
8.You Can't Lie Anymore
9.Price of My Life
10.Temple of Shelter
11. Fire in Your Eyes

Band:
Vocals : Gerd Salewski
Guitars : SC Wuller
Guitars : Reno Wendschuh
Bass : Harry Bex
Drums : Tane Mende

"Куй"
REM GENRE "Heavy Metal"
REM DATE 1992
REM DISCID 850ADF0B
REM COMMENT "ExactAudioCopy v0.95b4"
PERFORMER "CHROMING ROSE"
TITLE "PRESSURE"
FILE "CHROMING ROSE - PRESSURE.wav" WAVE
TRACK 01 AUDIO
TITLE "Under Pressure"
PERFORMER "CHROMING ROSE"
INDEX 01 00:00:00
TRACK 02 AUDIO
TITLE "Never Ending Nights"
PERFORMER "CHROMING ROSE"
INDEX 00 04:01:15
INDEX 01 04:02:05
TRACK 03 AUDIO
TITLE "Metamorphic Dreamer"
PERFORMER "CHROMING ROSE"
INDEX 00 07:59:32
INDEX 01 08:00:52
TRACK 04 AUDIO
TITLE "Skyline Of The World"
PERFORMER "CHROMING ROSE"
INDEX 00 12:18:00
INDEX 01 12:18:55
TRACK 05 AUDIO
TITLE "They Will Always Find A Reason"
PERFORMER "CHROMING ROSE"
INDEX 00 15:49:55
INDEX 01 15:51:57
TRACK 06 AUDIO
TITLE "The Snake"
PERFORMER "CHROMING ROSE"
INDEX 00 21:11:22
INDEX 01 21:12:22
TRACK 07 AUDIO
TITLE "They Want More"
PERFORMER "CHROMING ROSE"
INDEX 00 24:22:05
INDEX 01 24:25:27
TRACK 08 AUDIO
TITLE "You Can't Lie Anymore"
PERFORMER "CHROMING ROSE"
INDEX 00 27:59:25
INDEX 01 28:01:27
TRACK 09 AUDIO
TITLE "Price Of My Life"
PERFORMER "CHROMING ROSE"
INDEX 00 33:18:40
INDEX 01 33:20:00
TRACK 10 AUDIO
TITLE "Temple Of Shelter"
PERFORMER "CHROMING ROSE"
INDEX 00 37:20:57
INDEX 01 37:22:12
TRACK 11 AUDIO
TITLE "Fire In Your Eyes *"
PERFORMER "CHROMING ROSE"
INDEX 00 41:43:00
INDEX 01 41:44:60


"Лог"
Отчёт EAC об извлечении, выполненном 4. мая 2010, 12:16 для диска:
CHROMING ROSE / PRESSURE

Дисковод: MATSHITADVD-RAM UJ-850S Adapter: 2 ID: 0
Режим чтения: Достоверный (C2: нет, Точный поток: да, Отключение кэша: да)
Коррекция смещения при чтении: 102
Способность читать области Lead-in и Lead-out : Нет

Выходной формат: Внутренние WAV-операции
44.100 Гц; 16 бит; стерео

Другие параметры:
Заполнение пропущенных сэмплов тишиной : Да
Удаление блоков с тишиной в начале и конце : Нет
Установленный внешний ASPI-интерфейс


Характеристики диапазона извлечения и сообщения об ошибках
Выбранный диапазон
Имя файла D:\Мои Документы\Моя музыка\CHROMING ROSE - PRESSURE.wav


Диск предоставил Алексей "Alexbeer".

Narod


Top
 Profile  
 
Display posts from previous:  Sort by  
Post new topic Reply to topic  [ 1 post ] 

All times are UTC + 3 hours


Who is online

Users browsing this forum: No registered users and 1 guest


You cannot post new topics in this forum
You cannot reply to topics in this forum
You cannot edit your posts in this forum
You cannot delete your posts in this forum

Search for:
Яндекс.Метрика
Powered by phpBB © 2000, 2002, 2005, 2007 phpBB Group