\m/ 80's metal \m/

Информационно-аналитический форум "80 см пыли" (In Search We Trust) "У нас никто никуда не спешит"
Me For You - http://me-4u.com
It is currently 06 Dec 2021

All times are UTC + 3 hours

Spoiler
Chat - temporary registration for foreign users (please leave your application here)







Post new topic Reply to topic  [ 8 posts ] 
Author Message
 
PostPosted: 30 Mar 2010 
ыыыы
User avatar
Joined: 17 May 2009
Posts: 952
Lоcаtion: Пушкино, МО
Age: 43
Name: Дмитрий
Image


Жанр: Heavy Metal
Происхождение исполнителя: Англия
Год издания: 1988
Год издания данного носителя: 1989
Страна-производитель носителя: Япония
Аудио кодек: FLAC
Тип рипа: image+.cue
Битрейт аудио: lossless
Продолжительность: 40:54
Рип: Собственный
Лейбл: I.R.S./VICTOR
Каталоговый номер: VDP-1439
Матрица: VDP-1439-1-A1E 11 (JVC)

Треклист:
1. Thanks For The Angst 03:39
2. Take Me I'm Yours 05:49
3. Don't Let Go 02:49
4. Come Back 03:55
5. I Want To Find Out 05:15
6. Take It Or Leave It 04:21
7. Living A Lie 02:51
8. Cut Loose 03:45
9. Too Far Gone 03:38
10. Set Me Free 04:52

"Куй"
REM GENRE Rock
REM DATE 1988
REM DISCID 8509960A
REM COMMENT "ExactAudioCopy v0.99pb5"
PERFORMER "Chrome Molly"
TITLE "Angst [VDP-1439]"
FILE "Chrome Molly - Angst [VDP-1439].flac" WAVE
TRACK 01 AUDIO
TITLE "Thanx For The Angst"
PERFORMER "Chrome Molly"
INDEX 00 00:00:00
INDEX 01 00:00:37
TRACK 02 AUDIO
TITLE "Take Me I'm Yours"
PERFORMER "Chrome Molly"
INDEX 00 03:38:50
INDEX 01 03:39:50
TRACK 03 AUDIO
TITLE "Don't Let Go"
PERFORMER "Chrome Molly"
INDEX 00 09:27:63
INDEX 01 09:28:25
TRACK 04 AUDIO
TITLE "Come Back"
PERFORMER "Chrome Molly"
INDEX 00 12:17:15
INDEX 01 12:17:52
TRACK 05 AUDIO
TITLE "I Want To Find Out"
PERFORMER "Chrome Molly"
INDEX 01 16:12:30
TRACK 06 AUDIO
TITLE "Take It Or Leave It"
PERFORMER "Chrome Molly"
INDEX 00 21:26:55
INDEX 01 21:27:55
TRACK 07 AUDIO
TITLE "Living A Lie"
PERFORMER "Chrome Molly"
INDEX 01 25:48:22
TRACK 08 AUDIO
TITLE "Cut Loose"
PERFORMER "Chrome Molly"
INDEX 01 28:39:22
TRACK 09 AUDIO
TITLE "Too Far Gone"
PERFORMER "Chrome Molly"
INDEX 01 32:24:12
TRACK 10 AUDIO
TITLE "Set Me Free"
PERFORMER "Chrome Molly"
INDEX 00 36:01:63
INDEX 01 36:02:25


"Лог"
Exact Audio Copy V0.99 prebeta 5 from 4. May 2009

EAC extraction logfile from 30. March 2010, 11:09

Chrome Molly / Angst [VDP-1439]

Used drive : ASUS DRW-2014S1T Adapter: 1 ID: 1

Read mode : Secure
Utilize accurate stream : Yes
Defeat audio cache : Yes
Make use of C2 pointers : No

Read offset correction : 6
Overread into Lead-In and Lead-Out : No
Fill up missing offset samples with silence : Yes
Delete leading and trailing silent blocks : No
Null samples used in CRC calculations : Yes
Used interface : Installed external ASPI interface

Used output format : User Defined Encoder
Selected bitrate : 128 kBit/s
Quality : High
Add ID3 tag : No
Command line compressor : C:\Program Files\Exact Audio Copy\Flac\flac.exe
Additional command line options : -8 -V -T "artist=%a" -T "title=%t" -T "album=%g" -T "date=%y" -T "tracknumber=%n" -T "genre=%m" -T "comment=EAC 0.9beta4 / FLAC 1.1.0 q6" %s


TOC of the extracted CD

Track | Start | Length | Start sector | End sector
---------------------------------------------------------
1 | 0:00.37 | 3:39.13 | 37 | 16474
2 | 3:39.50 | 5:48.50 | 16475 | 42624
3 | 9:28.25 | 2:49.27 | 42625 | 55326
4 | 12:17.52 | 3:54.53 | 55327 | 72929
5 | 16:12.30 | 5:15.25 | 72930 | 96579
6 | 21:27.55 | 4:20.42 | 96580 | 116121
7 | 25:48.22 | 2:51.00 | 116122 | 128946
8 | 28:39.22 | 3:44.65 | 128947 | 145811
9 | 32:24.12 | 3:38.13 | 145812 | 162174
10 | 36:02.25 | 4:52.12 | 162175 | 184086


Range status and errors

Selected range

Filename Y:\Музыка\Chrome Molly\1988 Angst\Chrome Molly - Angst [VDP-1439].wav

Peak level 72.9 %
Range quality 100.0 %
Copy CRC AD634925
Copy OK

No errors occurred

End of status report


Состав:
Steve Hawkins: Vocals
Tim Read: Guitar
Nic Wastell: Bass
Mark Godfrey: Drums

Megaupload
Фото

_________________
Витасу до Даймонда как Алсу до Руссоса | При переразмещении - спрашивать разрешение!!


Last edited by iezuit on 31 Mar 2010, edited 1 time in total.

Top
 Profile  
 
 
PostPosted: 30 Mar 2010 
Хиппей (support team)
User avatar
Joined: 30 Jul 2007
Posts: 123253
Lоcаtion: Киев (Kyiv, UA)
Age: 48
Name: Andrey
:thanx:

_________________


Top
 Profile E-mail  
 
 
PostPosted: 30 Mar 2010 
Анатолий
User avatar
Joined: 18 Oct 2008
Posts: 4216
Lоcаtion: Армавир
Age: 44
Name: Анатолий
Тяжёлая артиллерия подтягивается к линии фронта. ;) :true:

iezuit

Спасибо большое за релизы! :thanx:


Top
 Profile E-mail  
 
 
PostPosted: 30 Mar 2010 
ыыыы
User avatar
Joined: 17 May 2009
Posts: 952
Lоcаtion: Пушкино, МО
Age: 43
Name: Дмитрий
Privateer
Кстати скоро повыкладываю кое-что из SMS/F.E.M.S. Уже 88 Даймонд был, жаль не достался 87 Mad Max (( И London'а нету нигде ...

_________________
Витасу до Даймонда как Алсу до Руссоса | При переразмещении - спрашивать разрешение!!


Top
 Profile  
 
 
PostPosted: 02 Apr 2010 
Metal Collector
User avatar
Joined: 16 Nov 2008
Posts: 1377
Lоcаtion: Химки
Age: 38
Name: Андрей
Не знаю таких, но заценю :)


Top
 Profile E-mail  
 
 
PostPosted: 02 Apr 2010 
Прокъмитолист
User avatar
Joined: 12 Aug 2007
Posts: 6878
Lоcаtion: Санктъ-Петербуркъ
Age: 54
Name: Олекъ
ну, и я забрал за компанию. спасибо, Дим! :thanx:

_________________
прокъметол - это музыко, от которово есть прок (ы)


Top
 Profile  
 
 
PostPosted: 02 Apr 2010 
ыыыы
User avatar
Joined: 17 May 2009
Posts: 952
Lоcаtion: Пушкино, МО
Age: 43
Name: Дмитрий
spiralarch
На здоровье!!!

_________________
Витасу до Даймонда как Алсу до Руссоса | При переразмещении - спрашивать разрешение!!


Top
 Profile  
 
 
PostPosted: 04 Aug 2010 
А может смените мне статус?..
User avatar
Joined: 24 Dec 2008
Posts: 679
Age: 47
Name: Дмитрий
Не знаю, что за группа, но ознакомлюсь. Спасибо. :losik:


Top
 Profile  
 
Display posts from previous:  Sort by  
Post new topic Reply to topic  [ 8 posts ] 

All times are UTC + 3 hours


Who is online

Users browsing this forum: No registered users and 1 guest


You cannot post new topics in this forum
You cannot reply to topics in this forum
You cannot edit your posts in this forum
You cannot delete your posts in this forum

Search for:
Яндекс.Метрика
Powered by phpBB © 2000, 2002, 2005, 2007 phpBB Group