\m/ 80's metal \m/

Информационно-аналитический форум "80 см пыли" (In Search We Trust) "У нас никто никуда не спешит"
Me For You - http://me-4u.com
It is currently 29 Nov 2021

All times are UTC + 3 hours

Spoiler
Chat - temporary registration for foreign users (please leave your application here)







Post new topic Reply to topic  [ 6 posts ] 
Author Message
 
PostPosted: 22 Feb 2010 
хард н хэвщик (support team)
User avatar
Joined: 02 Jun 2008
Posts: 16881
Lоcаtion: Н.Новгород
Age: 34
Name: Артем
Image

Cutty Sark - 1985 - Heroes

1.Firebird
2.Heroes
3.Do Come True
4.Smell A Rat
5.Sold To Kill
6.Love The World Away
7.Invitation To Dance
8.Let's Go

Формат: FLAC+CUE+LOG. Все коврики внутри.

Log
Exact Audio Copy V0.99 prebeta 3 from 28. July 2007

Отчёт EAC об извлечении, выполненном 18. февраля 2010, 21:45

Cutty Sark - / Heroes

Дисковод: Optiarc DVD RW AD-7200S Adapter: 2 ID: 2

Режим чтения : Достоверность
Использование точного потока : Да
Отключение кэша аудио : Да
Использование указателей C2 : Нет

Коррекция смещения при чтении : 48
Способность читать области Lead-in и Lead-out : Нет
Заполнение пропущенных сэмплов тишиной : Да
Удаление блоков с тишиной в начале и конце : Нет
При вычислениях CRC использовались нулевые сэмплы : Да
Интерфейс : Встроенный Win32-интерфейс для Win NT/2000

Выходной формат : Внутренние WAV-операции
Формат сэмплов : 44.100 Гц; 16 бит; стерео


TOC извлечённого CD

Трек | Старт | Длительность | Начальный сектор | Конечный сектор
---------------------------------------------------------------------
1 | 0:00.00 | 6:00.27 | 0 | 27026
2 | 6:00.27 | 5:20.40 | 27027 | 51066
3 | 11:20.67 | 4:40.18 | 51067 | 72084
4 | 16:01.10 | 4:51.72 | 72085 | 93981
5 | 20:53.07 | 5:06.13 | 93982 | 116944
6 | 25:59.20 | 6:30.72 | 116945 | 146266
7 | 32:30.17 | 4:12.68 | 146267 | 165234
8 | 36:43.10 | 4:26.60 | 165235 | 185244
9 | 41:09.70 | 3:35.30 | 185245 | 201399
10 | 44:45.25 | 3:11.55 | 201400 | 215779


Характеристики диапазона извлечения и сообщения об ошибках

Выбранный диапазон

Имя файла C:\Downloads\Музыка\Cutty Sark - - Heroes.wav

Пиковый уровень 98.0 %
Качество диапазона 100.0 %
CRC копии 47AC56F9
Копирование... OK

Ошибок не произошло

Конец отчёта


log
REM DATE 1985
REM DISCID 880B3D0A
REM COMMENT "ExactAudioCopy v0.99pb3"
PERFORMER "Cutty Sark -"
TITLE " Heroes "
FILE "Cutty Sark - - Heroes.flac" WAVE
TRACK 01 AUDIO
TITLE "Firebird"
PERFORMER "Cutty Sark -"
INDEX 01 00:00:00
TRACK 02 AUDIO
TITLE "Heroes"
PERFORMER "Cutty Sark -"
INDEX 00 05:58:42
INDEX 01 06:00:27
TRACK 03 AUDIO
TITLE "Do Come True"
PERFORMER "Cutty Sark -"
INDEX 00 11:19:47
INDEX 01 11:20:67
TRACK 04 AUDIO
TITLE "Smell A Rat"
PERFORMER "Cutty Sark -"
INDEX 00 16:00:02
INDEX 01 16:01:10
TRACK 05 AUDIO
TITLE "Sold To Kill"
PERFORMER "Cutty Sark -"
INDEX 00 20:50:10
INDEX 01 20:53:07
TRACK 06 AUDIO
TITLE "Love The World Away"
PERFORMER "Cutty Sark -"
INDEX 00 25:57:37
INDEX 01 25:59:20
TRACK 07 AUDIO
TITLE "Invitation To Dance"
PERFORMER "Cutty Sark -"
INDEX 00 32:27:37
INDEX 01 32:30:17
TRACK 08 AUDIO
TITLE "Let's Go"
PERFORMER "Cutty Sark -"
INDEX 00 36:41:12
INDEX 01 36:43:10
TRACK 09 AUDIO
TITLE "The Dice (Bonus)"
PERFORMER "Cutty Sark -"
INDEX 00 41:06:40
INDEX 01 41:09:70
TRACK 10 AUDIO
TITLE "Attack (Bonus)"
PERFORMER "Cutty Sark -"
INDEX 00 44:42:42
INDEX 01 44:45:25


спасибо klaus за заливку лося ! :true:

оригинальные ссылочки:
http://ifolder.ru/16487507
http://ifolder.ru/16487548
http://ifolder.ru/16487580
http://ifolder.ru/16487633

мои зеркала:
http://www.megaupload.com/?d=PZB34IEF
http://www.megaupload.com/?d=NG8OQTMG
http://www.megaupload.com/?d=JJ7S4YSJ
http://www.megaupload.com/?d=R75IISGO
http://www.megaupload.com/?d=BHW7F4MH

осторожно, мои ссылки не совместимы с клаусовскими


Top
 Profile  
 
 
PostPosted: 22 Feb 2010 
Труъ
User avatar
Joined: 14 Jul 2009
Posts: 158
Lоcаtion: Hell Is Here
Age: 51
Name: Adriano
klaus & McKagan , Thank You Very Much ! :thanx:


Top
 Profile E-mail  
 
 
PostPosted: 22 Feb 2010 
А может смените мне статус?..
User avatar
Joined: 08 Nov 2007
Posts: 638
Lоcаtion: Crimea, UA
Age: 35
Name: Анатолий
:true: !

Image


Top
 Profile  
 
 
PostPosted: 22 Feb 2010 
Thrasher
User avatar
Joined: 07 Oct 2007
Posts: 2782
Lоcаtion: Russia, Moscow
Age: 37
Name: Drunk & Evil
ух...внедрил бы такого вискаря в кайф

_________________
ВОДКА, БАБЫ И БЛЮЗ / 40° till death... :bodun:
One time we saw some hookers, but when we got closer, we realised it was Mötley Crüe. ©


Top
 Profile  
 
 
PostPosted: 07 Apr 2011 
Хиппей (support team)
User avatar
Joined: 30 Jul 2007
Posts: 123152
Lоcаtion: Киев (Kyiv, UA)
Age: 48
Name: Andrey
Дополнительные ссылки этого же рипа от товарища Николая Klaus'a :thanx:

MultiUp l Narod

_________________


Top
 Profile E-mail  
 
 
PostPosted: 07 Apr 2011 
Хиппей (support team)
User avatar
Joined: 30 Jul 2007
Posts: 123152
Lоcаtion: Киев (Kyiv, UA)
Age: 48
Name: Andrey
Зы.. Ыыы... блин, лог и куй совпадают, а вот по первым ссылкам альбом в эйпе, а тута во флаке :oops:
Откуда качал - снова не помню :vic: Сам не переводил из формата в формат - это точно знаю.

_________________


Top
 Profile E-mail  
 
Display posts from previous:  Sort by  
Post new topic Reply to topic  [ 6 posts ] 

All times are UTC + 3 hours


Who is online

Users browsing this forum: No registered users and 1 guest


You cannot post new topics in this forum
You cannot reply to topics in this forum
You cannot edit your posts in this forum
You cannot delete your posts in this forum

Search for:
Яндекс.Метрика
cron
Powered by phpBB © 2000, 2002, 2005, 2007 phpBB Group