\m/ 80's metal \m/

Информационно-аналитический форум "80 см пыли" (In Search We Trust) "У нас никто никуда не спешит"
Me For You - http://me-4u.com
It is currently 23 Jan 2021

All times are UTC + 3 hours

Spoiler
Chat - temporary registration for foreign users (please leave your application here)







Post new topic Reply to topic  [ 3 posts ] 
Author Message
 
PostPosted: 27 Jan 2010 
труъ антисионист
User avatar
Joined: 01 Aug 2007
Posts: 4544
Lоcаtion: Откуда и большинство из нас
Age: 40
Name: Дядя Вова
Image
Группа: The Crucified
Альбом: The Pillars of Humanity
Год: 1991
Лейбл:
Стиль: Thrash Metal / Crossover
Страна: USA
Формат: APE / Log / CUE
Размер: 250 Mb

**********************************************************************************

Line Up:

Jim Chaffin - Drums
Jeff Bellew - Bass
Greg Minier - Guitars
Mark Salomon - Lead Vocals



Tracks:
1. Intro - Hateworld
2. It's All About Fear
3. The Wrong One
4. Mindbender
5. Path to Sorrow
6. Fellowship of Thieves
7. Focus
8. The Strength
9. Blackstone - So-Called Living, 1991
10. The Pillars of Humanity


LOG
Exact Audio Copy V0.99 prebeta 5 from 4. May 2009

EAC extraction logfile from 22. November 2009, 11:38

THE CRUCIFIED / The Pillars Of Humanity

Used drive : Optiarc DVD RW AD-7203A Adapter: 4 ID: 2

Read mode : Secure
Utilize accurate stream : Yes
Defeat audio cache : Yes
Make use of C2 pointers : No

Read offset correction : 48
Overread into Lead-In and Lead-Out : No
Fill up missing offset samples with silence : Yes
Delete leading and trailing silent blocks : No
Null samples used in CRC calculations : Yes
Used interface : Native Win32 interface for Win NT & 2000

Used output format : Monkey's Audio Lossless Encoder
Selected bitrate : Normal Lossless Compression
Quality : High
Add ID3 tag : No
Command line compressor : C:\Program Files\Monkey's Audio\MAC.exe


TOC of the extracted CD

Track | Start | Length | Start sector | End sector
---------------------------------------------------------
1 | 0:00.00 | 5:20.25 | 0 | 24024
2 | 5:20.25 | 2:29.65 | 24025 | 35264
3 | 7:50.15 | 3:41.20 | 35265 | 51859
4 | 11:31.35 | 3:53.25 | 51860 | 69359
5 | 15:24.60 | 4:02.10 | 69360 | 87519
6 | 19:26.70 | 3:12.02 | 87520 | 101921
7 | 22:38.72 | 2:32.55 | 101922 | 113376
8 | 25:11.52 | 3:53.60 | 113377 | 130911
9 | 29:05.37 | 4:16.33 | 130912 | 150144
10 | 33:21.70 | 2:57.40 | 150145 | 163459


Range status and errors

Selected range

Filename D:\MUSIC\THE CRUCIFIED - Pillars of Humanity1991\THE CRUCIFIED - The Pillars Of Humanity.wav

Peak level 89.6 %
Range quality 100.0 %
Test CRC A5143114
Copy CRC A5143114
Copy OK

No errors occurred


AccurateRip summary

Track 1 accurately ripped (confidence 5) [3E351CCF]
Track 2 accurately ripped (confidence 5) [AB9DFE4C]
Track 3 accurately ripped (confidence 5) [98164ABE]
Track 4 accurately ripped (confidence 5) [78B9EDC9]
Track 5 accurately ripped (confidence 5) [C3424B3F]
Track 6 accurately ripped (confidence 5) [60F8BE96]
Track 7 accurately ripped (confidence 5) [72ABCCAA]
Track 8 accurately ripped (confidence 5) [EC56F797]
Track 9 accurately ripped (confidence 5) [FF5B27ED]
Track 10 accurately ripped (confidence 5) [2D0AA2C0]

All tracks accurately ripped

End of status report

Взято и перезалито с http://metal4alas.blogspot.com

===================================DOWNLOAD========================================

The Crucified - Pillars of Humanity.rar
http://www.megaupload.com/?d=FH6AYUUJ

_________________
Image
Image


Top
 Profile  
 
 
PostPosted: 27 Jan 2010 
А может смените мне статус?..
User avatar
Joined: 17 Jan 2008
Posts: 901
Lоcаtion: Пенза
Age: 43
Name: Денис
:true: :true: :true: Спасибо :thanx: Вот бы еще пршлогодний бокс-сет ''The Crucified: Complete Collection'' в лосях нарыть,красота бы была..............


Top
 Profile  
 
 
PostPosted: 31 Jan 2010 
Прокъмитолист
User avatar
Joined: 12 Aug 2007
Posts: 6794
Lоcаtion: Санктъ-Петербуркъ
Age: 53
Name: Олекъ
утащил. спасибо, Володь! :thanx:

_________________
прокъметол - это музыко, от которово есть прок (ы)


Top
 Profile  
 
Display posts from previous:  Sort by  
Post new topic Reply to topic  [ 3 posts ] 

All times are UTC + 3 hours


Who is online

Users browsing this forum: No registered users and 2 guests


You cannot post new topics in this forum
You cannot reply to topics in this forum
You cannot edit your posts in this forum
You cannot delete your posts in this forum
You cannot post attachments in this forum

Search for:
Яндекс.Метрика
Powered by phpBB © 2000, 2002, 2005, 2007 phpBB Group