\m/ 80's metal \m/

Информационно-аналитический форум "80 см пыли" (In Search We Trust) "У нас никто никуда не спешит"
Me For You - http://me-4u.com
It is currently 01 Dec 2021

All times are UTC + 3 hours

Spoiler
Chat - temporary registration for foreign users (please leave your application here)







Post new topic Reply to topic  [ 21 posts ]  Go to page 1, 2  Next
Author Message
 
PostPosted: 04 Jan 2010 
5-speed satisfactor
User avatar
Joined: 16 Feb 2009
Posts: 3961
Lоcаtion: New York, USA
Age: 43
Name: Leonid
По просьбе трудящегося:

http://www.megaupload.com/?d=KLZK0UZN
http://narod.ru/disk/16625506000/CJSS.rar.html

Трудящийся должен потрудиться и оформить пост.

_________________
Death rules! Metal to all who oppose!


Top
 Profile  
 
 
PostPosted: 04 Jan 2010 
Хиппей (support team)
User avatar
Joined: 30 Jul 2007
Posts: 123186
Lоcаtion: Киев (Kyiv, UA)
Age: 48
Name: Andrey
Вроде я просил :crazy: Спасибо, Лёнь! :thanx:

_________________


Top
 Profile E-mail  
 
 
PostPosted: 04 Jan 2010 
5-speed satisfactor
User avatar
Joined: 16 Feb 2009
Posts: 3961
Lоcаtion: New York, USA
Age: 43
Name: Leonid
Ты просил оформлять посты. А трудящийся, имя которого я говорить не буду, (он мой тёзка :nunu: ) просил японскую версию.

_________________
Death rules! Metal to all who oppose!


Top
 Profile  
 
 
PostPosted: 04 Jan 2010 
А может смените мне статус?..
User avatar
Joined: 24 Dec 2008
Posts: 679
Age: 47
Name: Дмитрий
Спасибо за японо-диск! :gra:


Top
 Profile  
 
 
PostPosted: 04 Jan 2010 
труъ антисионист
User avatar
Joined: 01 Aug 2007
Posts: 4544
Lоcаtion: Откуда и большинство из нас
Age: 40
Name: Дядя Вова
От меня тоже спасибЫ :true:

_________________
Image
Image


Top
 Profile  
 
 
PostPosted: 04 Jan 2010 
Хиппей (support team)
User avatar
Joined: 30 Jul 2007
Posts: 123186
Lоcаtion: Киев (Kyiv, UA)
Age: 48
Name: Andrey
metaleonid wrote:
А трудящийся, имя которого я говорить не буду,

Чего-то я у нас больше Леонидов не замечал :vic:

_________________


Top
 Profile E-mail  
 
 
PostPosted: 05 Jan 2010 
5-speed satisfactor
User avatar
Joined: 16 Feb 2009
Posts: 3961
Lоcаtion: New York, USA
Age: 43
Name: Leonid
Scatterbrain wrote:
metaleonid wrote:
А трудящийся, имя которого я говорить не буду,

Чего-то я у нас больше Леонидов не замечал :vic:


Может я чего не понял. Но в личке он моим именем подписался.

_________________
Death rules! Metal to all who oppose!


Top
 Profile  
 
 
PostPosted: 05 Jan 2010 
Пионэръ
User avatar
Joined: 05 Jan 2010
Posts: 17
Lоcаtion: Mother Russia
Name: Леонид
Это был я. Пришлось перерегиться с новым логином. Благо сайт позволяет.
Спасибо тезка, обязательно оформлю новость и это будет моим дебютом. Правда "лось" не мой, но что поделать... :smile:

_________________
Image


Top
 Profile E-mail  
 
 
PostPosted: 05 Jan 2010 
Пионэръ
User avatar
Joined: 05 Jan 2010
Posts: 17
Lоcаtion: Mother Russia
Name: Леонид
CJSS -BEST (World Gone Mad/Praise the Loud) Japanese [Flac-Cue-Log-Scans]


Image

Genre: Heavy/Power Metal
Year: 1986 (1995)
Country: USA
Codec: FLAC
Rip: tracks+.cue+scans
Total time: 75:04

Tracklist:
World Gone Mad:
1. Hell On Earth 02:50
2. No-Man's Land 04:58
3. Communication Breakdown (Led Zeppelin cover) 02:44
4. World Gone Mad 03:18
5. Run To Another Day 06:12
6. The Gates Of Eternity 03:36
7. Destiny 04:00
8. Welcome To Damnation 04:08
9. Living In Exile 05:11
Praise the Loud:
10. Out Of Control 03:06
11. Land Of The Free 03:08
12. Don´t Play With Fire 03:26
13. Praise The Loud 04:04
14. Citizen Of Hell 05:25
15. Danger 04:43
16. Metal Forever 03:01
17. Thunder And Lightning 04:08
18. The Bargain 07:16

CJSS:
David T. Chastain - Guitars (Chastain, Zanister, Spike, Michael Harris, Corbin King)
Russel Jenkins - Vocals
Les Sharp - Drums (Spike)
Mike Skimmerhorn - Bass (Spike, Chastain)

"Log EAC"
Exact Audio Copy V0.99 prebeta 5 from 4. May 2009

EAC extraction logfile from 4. January 2010, 11:39

CJSS / Best

Used drive : PLEXTOR DVDR PX-760A Adapter: 1 ID: 0

Read mode : Secure
Utilize accurate stream : Yes
Defeat audio cache : Yes
Make use of C2 pointers : Yes

Read offset correction : 30
Overread into Lead-In and Lead-Out : Yes
Fill up missing offset samples with silence : Yes
Delete leading and trailing silent blocks : No
Null samples used in CRC calculations : Yes
Used interface : Installed external ASPI interface
Gap handling : Appended to previous track

Used output format : Internal WAV Routines
Sample format : 44.100 Hz; 16 Bit; Stereo


TOC of the extracted CD

Track | Start | Length | Start sector | End sector
---------------------------------------------------------
1 | 0:00.37 | 2:51.40 | 37 | 12901
2 | 2:52.02 | 5:00.10 | 12902 | 35411
3 | 7:52.12 | 2:44.45 | 35412 | 47756
4 | 10:36.57 | 3:19.20 | 47757 | 62701
5 | 13:56.02 | 6:11.38 | 62702 | 90564
6 | 20:07.40 | 3:36.35 | 90565 | 106799
7 | 23:44.00 | 4:01.12 | 106800 | 124886
8 | 27:45.12 | 4:08.68 | 124887 | 143554
9 | 31:54.05 | 5:13.42 | 143555 | 167071
10 | 37:07.47 | 3:05.08 | 167072 | 180954
11 | 40:12.55 | 3:08.02 | 180955 | 195056
12 | 43:20.57 | 3:26.23 | 195057 | 210529
13 | 46:47.05 | 4:04.07 | 210530 | 228836
14 | 50:51.12 | 5:23.68 | 228837 | 253129
15 | 56:15.05 | 4:43.32 | 253130 | 274386
16 | 60:58.37 | 3:00.30 | 274387 | 287916
17 | 63:58.67 | 4:08.08 | 287917 | 306524
18 | 68:07.00 | 7:16.25 | 306525 | 339249


Track 1

Filename N:\ToCD\CJSS\Best\01. Hell On Earth.wav

Pre-gap length 0:00:02.37

Peak level 93.8 %
Track quality 100.0 %
Copy CRC BE78D838
Copy OK

Track 2

Filename N:\ToCD\CJSS\Best\02. No Man's Land.wav

Peak level 100.0 %
Track quality 100.0 %
Copy CRC B1782517
Copy OK

Track 3

Filename N:\ToCD\CJSS\Best\03. Communication Breakdown.wav

Peak level 91.4 %
Track quality 100.0 %
Copy CRC 1E496F8A
Copy OK

Track 4

Filename N:\ToCD\CJSS\Best\04. World Gone Mad.wav

Peak level 97.0 %
Track quality 100.0 %
Copy CRC A5050D0F
Copy OK

Track 5

Filename N:\ToCD\CJSS\Best\05. Run To Another Day.wav

Peak level 100.0 %
Track quality 100.0 %
Copy CRC 16A66CBB
Copy OK

Track 6

Filename N:\ToCD\CJSS\Best\06. The Gates Of Eternity.wav

Peak level 94.2 %
Track quality 100.0 %
Copy CRC 904B2AFF
Copy OK

Track 7

Filename N:\ToCD\CJSS\Best\07. Destiny.wav

Peak level 94.5 %
Track quality 100.0 %
Copy CRC 1DF0A889
Copy OK

Track 8

Filename N:\ToCD\CJSS\Best\08. Welcome To Damnation.wav

Peak level 100.0 %
Track quality 99.9 %
Copy CRC 2E075738
Copy OK

Track 9

Filename N:\ToCD\CJSS\Best\09. Living In Exile.wav

Peak level 93.1 %
Track quality 100.0 %
Copy CRC D81C613D
Copy OK

Track 10

Filename N:\ToCD\CJSS\Best\10. Out Of Control.wav

Pre-gap length 0:00:03.49

Peak level 95.3 %
Track quality 100.0 %
Copy CRC 9D19BA0E
Copy OK

Track 11

Filename N:\ToCD\CJSS\Best\11. Land Of The Free.wav

Peak level 95.9 %
Track quality 99.8 %
Copy CRC ABF29B19
Copy OK

Track 12

Filename N:\ToCD\CJSS\Best\12. Don't Play With Fire.wav

Peak level 92.8 %
Track quality 100.0 %
Copy CRC 6D8F33F8
Copy OK

Track 13

Filename N:\ToCD\CJSS\Best\13. Praise The Loud.wav

Peak level 99.4 %
Track quality 100.0 %
Copy CRC A4E99BB2
Copy OK

Track 14

Filename N:\ToCD\CJSS\Best\14. Citizen Of Hell.wav

Peak level 97.3 %
Track quality 100.0 %
Copy CRC C18D8DDE
Copy OK

Track 15

Filename N:\ToCD\CJSS\Best\15. Danger.wav

Peak level 97.9 %
Track quality 100.0 %
Copy CRC 2166D58C
Copy OK

Track 16

Filename N:\ToCD\CJSS\Best\16. Metal Forever.wav

Peak level 100.0 %
Track quality 99.8 %
Copy CRC 81C741ED
Copy OK

Track 17

Filename N:\ToCD\CJSS\Best\17. Thunder And Lightning.wav

Peak level 93.7 %
Track quality 100.0 %
Copy CRC 58A9719C
Copy OK

Track 18

Filename N:\ToCD\CJSS\Best\18. The Bargain.wav

Peak level 100.0 %
Track quality 99.9 %
Copy CRC 398D2B26
Copy OK

No errors occurred

End of status report


"Megaupload"
no pass.

Все благодарности за рип и заливку сего редкого издания, уходят к metaleonid!!! :thanx:

_________________
Image


Last edited by diterihs on 05 Jan 2010, edited 1 time in total.

Top
 Profile E-mail  
 
 
PostPosted: 05 Jan 2010 
5-speed satisfactor
User avatar
Joined: 16 Feb 2009
Posts: 3961
Lоcаtion: New York, USA
Age: 43
Name: Leonid
Спасибо, тёзка!

Кстати, это не 2 - 4 - 1. 2-4-1 это Pavement издание от 1999. Кстати, как оно сравнимо с японским?

_________________
Death rules! Metal to all who oppose!


Top
 Profile  
 
 
PostPosted: 05 Jan 2010 
Пионэръ
User avatar
Joined: 05 Jan 2010
Posts: 17
Lоcаtion: Mother Russia
Name: Леонид
metaleonid wrote:
Спасибо, тёзка!

Кстати, это не 2 - 4 - 1. 2-4-1 это Pavement издание от 1999. Кстати, как оно сравнимо с японским?

Не за что, тебе спасибо!
Ты прав Лень, исправил на BEST.. :smile:
Сейчас ничего не могу сказать по поводу разницы между Европой и Японией. Нахожусь на даче до 10-ого. Хай-Фая у меня тут нема, а ноут со вкладышами для теста не подходит. Потом в ПМ тебе напишу результаты.
Но думаю, они должны отличаться.

_________________
Image


Top
 Profile E-mail  
 
 
PostPosted: 05 Jan 2010 
5-speed satisfactor
User avatar
Joined: 16 Feb 2009
Posts: 3961
Lоcаtion: New York, USA
Age: 43
Name: Leonid
Буду ждать результата.

ЗЫ. Чтоб прожечь болванку, надо все ФЛАКи перевести в ВАВы и использовать куй, который внутри директории "Best ~ including World Gone Mad & Praise The Loud". Протестировал - работает.

_________________
Death rules! Metal to all who oppose!


Top
 Profile  
 
 
PostPosted: 05 Jan 2010 
Пионэръ
User avatar
Joined: 05 Jan 2010
Posts: 17
Lоcаtion: Mother Russia
Name: Леонид
Да. Вижу что разделено по дискам.
Я вообще тут все изменил. Сложил все треки в директорию с куем. Переименовал согласно номерам. Так-же изменил куй. Вот что получилось -
Cue
REM GENRE "Heavy Metal"
REM DATE 1986
REM DISCID 0911AB12
REM COMMENT "ExactAudioCopy v0.99pb5"
CATALOG 4988015055238
PERFORMER "CJSS"
TITLE "Best ~ including <<World Gone Mad>> & <<Praise The Loud>>"
FILE "01. Hell On Earth.wav" WAVE
TRACK 01 AUDIO
TITLE "Hell On Earth"
PERFORMER "CJSS"
PREGAP 00:00:37
INDEX 01 00:00:00
FILE "02. No Man's Land.wav" WAVE
TRACK 02 AUDIO
TITLE "No Man's Land"
PERFORMER "CJSS"
INDEX 01 00:00:00
FILE "03. Communication Breakdown.wav" WAVE
TRACK 03 AUDIO
TITLE "Communication Breakdown"
PERFORMER "CJSS"
INDEX 01 00:00:00
FILE "04. World Gone Mad.wav" WAVE
TRACK 04 AUDIO
TITLE "World Gone Mad"
PERFORMER "CJSS"
INDEX 01 00:00:00
FILE "05. Run To Another Day.wav" WAVE
TRACK 05 AUDIO
TITLE "Run To Another Day"
PERFORMER "CJSS"
INDEX 01 00:00:00
FILE "06. The Gates Of Eternity.wav" WAVE
TRACK 06 AUDIO
TITLE "The Gates Of Eternity"
PERFORMER "CJSS"
INDEX 01 00:00:00
FILE "07. Destiny.wav" WAVE
TRACK 07 AUDIO
TITLE "Destiny"
PERFORMER "CJSS"
INDEX 01 00:00:00
FILE "08. Welcome To Damnation.wav" WAVE
TRACK 08 AUDIO
TITLE "Welcome To Damnation"
PERFORMER "CJSS"
INDEX 01 00:00:00
FILE "09. Living In Exile.wav" WAVE
TRACK 09 AUDIO
TITLE "Living In Exile"
PERFORMER "CJSS"
INDEX 01 00:00:00
TRACK 10 AUDIO
TITLE "Out Of Control"
PERFORMER "CJSS"
INDEX 00 05:09:68
FILE "10. Out Of Control.wav" WAVE
INDEX 01 00:00:00
FILE "11. Land Of The Free.wav" WAVE
TRACK 11 AUDIO
TITLE "Land Of The Free"
PERFORMER "CJSS"
INDEX 01 00:00:00
FILE "12. Don't Play With Fire.wav" WAVE
TRACK 12 AUDIO
TITLE "Don't Play With Fire"
PERFORMER "CJSS"
INDEX 01 00:00:00
FILE "13. Praise The Loud.wav" WAVE
TRACK 13 AUDIO
TITLE "Praise The Loud"
PERFORMER "CJSS"
INDEX 01 00:00:00
FILE "14. Citizen Of Hell.wav" WAVE
TRACK 14 AUDIO
TITLE "Citizen Of Hell"
PERFORMER "CJSS"
INDEX 01 00:00:00
FILE "15. Danger.wav" WAVE
TRACK 15 AUDIO
TITLE "Danger"
PERFORMER "CJSS"
INDEX 01 00:00:00
FILE "16. Metal Forever.wav" WAVE
TRACK 16 AUDIO
TITLE "Metal Forever"
PERFORMER "CJSS"
INDEX 01 00:00:00
FILE "17. Thunder And Lightning.wav" WAVE
TRACK 17 AUDIO
TITLE "Thunder And Lightning"
PERFORMER "CJSS"
INDEX 01 00:00:00
FILE "18. The Bargain.wav" WAVE
TRACK 18 AUDIO
TITLE "The Bargain"
PERFORMER "CJSS"
INDEX 01 00:00:00

Поставил CD-RW и прожег. Зашибись звучание. Даже во вкладышах. :dance:

_________________
Image


Top
 Profile E-mail  
 
 
PostPosted: 05 Jan 2010 
5-speed satisfactor
User avatar
Joined: 16 Feb 2009
Posts: 3961
Lоcаtion: New York, USA
Age: 43
Name: Leonid
Ты сделал так, как было в оригинале. Я разделил поальбомно (ну я просто предпочитаю иметь директорию соотвествующую альбому), но для любителей болванки сохранил возможность прожечь, чтобы копия совпадала с оригиналом.

_________________
Death rules! Metal to all who oppose!


Top
 Profile  
 
 
PostPosted: 05 Jan 2010 
Хиппей (support team)
User avatar
Joined: 30 Jul 2007
Posts: 123186
Lоcаtion: Киев (Kyiv, UA)
Age: 48
Name: Andrey
diterihs wrote:
Пришлось перерегиться с новым логином

Эээ, товарищ Леонид, а укажите-ка свой первый ник, плиз :umnik:

_________________


Top
 Profile E-mail  
 
 
PostPosted: 05 Jan 2010 
А может смените мне статус?..
User avatar
Joined: 24 Dec 2008
Posts: 679
Age: 47
Name: Дмитрий
Эх, жаль рип потрековый... :(


Top
 Profile  
 
 
PostPosted: 05 Jan 2010 
5-speed satisfactor
User avatar
Joined: 16 Feb 2009
Posts: 3961
Lоcаtion: New York, USA
Age: 43
Name: Leonid
Rager wrote:
Эх, жаль рип потрековый... :(


Какая разница?

_________________
Death rules! Metal to all who oppose!


Top
 Profile  
 
 
PostPosted: 05 Jan 2010 
А может смените мне статус?..
User avatar
Joined: 24 Dec 2008
Posts: 679
Age: 47
Name: Дмитрий
metaleonid wrote:
Rager wrote:
Эх, жаль рип потрековый... :(


Какая разница?


Когда одна композиция переходит в другую, бывают паузы или щелчки. Ну и вообще, это так сказать, не труъ... :umnik:


Top
 Profile  
 
 
PostPosted: 05 Jan 2010 
5-speed satisfactor
User avatar
Joined: 16 Feb 2009
Posts: 3961
Lоcаtion: New York, USA
Age: 43
Name: Leonid
Rager wrote:
Когда одна композиция переходит в другую, бывают паузы или щелчки. Ну и вообще, это так сказать, не труъ... :umnik:


Да. Я поэтому делаю потрековый и двигаю треки так, чтоб никаких щелчков не было. Ну чтоб если придется в мп3 заливать в будущем, не было щелчков. На данный момент никаких движений делать не пришлось. Никаких щелчков не было изначально.

Но погоди. Если слушать флаки, то никаких щелчков быть не должно! Это только если мп3.

_________________
Death rules! Metal to all who oppose!


Top
 Profile  
 
 
PostPosted: 05 Jan 2010 
А может смените мне статус?..
User avatar
Joined: 24 Dec 2008
Posts: 679
Age: 47
Name: Дмитрий
metaleonid wrote:
Rager wrote:
Когда одна композиция переходит в другую, бывают паузы или щелчки. Ну и вообще, это так сказать, не труъ... :umnik:


Да. Я поэтому делаю потрековый и двигаю треки так, чтоб никаких щелчков не было. Ну чтоб если придется в мп3 заливать в будущем, не было щелчков. На данный момент никаких движений делать не пришлось. Никаких щелчков не было изначально.

Но погоди. Если слушать флаки, то никаких щелчков быть не должно! Это только если мп3.

А если потом "заболванить" на CD, то могут и появиться :pardon:


Top
 Profile  
 
Display posts from previous:  Sort by  
Post new topic Reply to topic  [ 21 posts ]  Go to page 1, 2  Next

All times are UTC + 3 hours


Who is online

Users browsing this forum: No registered users and 1 guest


You cannot post new topics in this forum
You cannot reply to topics in this forum
You cannot edit your posts in this forum
You cannot delete your posts in this forum

Search for:
Яндекс.Метрика
Powered by phpBB © 2000, 2002, 2005, 2007 phpBB Group