\m/ 80's metal \m/

Информационно-аналитический форум "80 см пыли" (In Search We Trust) "У нас никто никуда не спешит"
Me For You - http://me-4u.com
It is currently 01 Dec 2021

All times are UTC + 3 hours

Spoiler
Chat - temporary registration for foreign users (please leave your application here)







Post new topic Reply to topic  [ 65 posts ]  Go to page Previous  1, 2, 3, 4
Author Message
 
PostPosted: 05 Oct 2017 
Хиппей (support team)
User avatar
Joined: 30 Jul 2007
Posts: 123186
Lоcаtion: Киев (Kyiv, UA)
Age: 48
Name: Andrey
Carisma [1992] In A Moonland (перезалил то, что Артём когда-то выкладывал): YaDisk

:thanx:

_________________


Top
 Profile E-mail  
 
 
PostPosted: 05 Oct 2017 
Хиппей (support team)
User avatar
Joined: 30 Jul 2007
Posts: 123186
Lоcаtion: Киев (Kyiv, UA)
Age: 48
Name: Andrey
http://www.facebook.com/jesper.arvidson вот кажись страничка барабанщика группы

По ходу, он давно завязал с музыкой и.. плавает под водой :ping:

_________________


Top
 Profile E-mail  
 
 
PostPosted: 05 Oct 2017 
Хиппей (support team)
User avatar
Joined: 30 Jul 2007
Posts: 123186
Lоcаtion: Киев (Kyiv, UA)
Age: 48
Name: Andrey
ds59 wrote:
лось на 1825 от Олега у меня на форуме если что

:thanx: и тута есть https://rutracker.org/forum/viewtopic.php?t=4800372

_________________


Top
 Profile E-mail  
 
 
PostPosted: 05 Oct 2017 
Работнечег
User avatar
Joined: 28 Aug 2007
Posts: 6392
Lоcаtion: г. Москва
Age: 32
Name: Дима
Джеспер сказал, что сингла у него нет, может быть есть на Спотифай. Спросил есть ли контакты других участников группы.


Top
 Profile E-mail  
 
 
PostPosted: 08 Oct 2017 
Хиппей (support team)
User avatar
Joined: 30 Jul 2007
Posts: 123186
Lоcаtion: Киев (Kyiv, UA)
Age: 48
Name: Andrey
ds59 wrote:
лось на 1825 от Олега у меня на форуме если что

:thanx: и тута есть https://rutracker.org/forum/viewtopic.php?t=4800372

Carisma - 1996 - Carisma 1825 (comp.) [flac]

Image Image Image

mirror: Depos l Narod l M-Cloud l Drop

Меланхоличная прог-паверная музыка с песнями-расказками и претензией на, если не харизму, то хотя бы оригинальность.
Увы, ни второго, ни первого нет здесь :(

зы. Первый трэк напоминает частично Металлику того же периода.. :tro:

4+/10

Image Image

log
Exact Audio Copy V1.0 beta 3 from 29. August 2011

EAC extraction logfile from 20. June 2014, 20:47

Carisma / 1825

Used drive : Optiarc DVD RW AD-7240S Adapter: 2 ID: 0

Read mode : Secure
Utilize accurate stream : Yes
Defeat audio cache : Yes
Make use of C2 pointers : No

Read offset correction : 48
Overread into Lead-In and Lead-Out : No
Fill up missing offset samples with silence : Yes
Delete leading and trailing silent blocks : No
Null samples used in CRC calculations : Yes
Used interface : Native Win32 interface for Win NT & 2000

Used output format : Internal WAV Routines
Sample format : 44.100 Hz; 16 Bit; Stereo


TOC of the extracted CD

Track | Start | Length | Start sector | End sector
---------------------------------------------------------
1 | 0:00.32 | 5:23.38 | 32 | 24294
2 | 5:23.70 | 5:27.05 | 24295 | 48824
3 | 10:51.00 | 4:06.70 | 48825 | 67344
4 | 14:57.70 | 4:19.20 | 67345 | 86789
5 | 19:17.15 | 3:37.32 | 86790 | 103096
6 | 22:54.47 | 5:10.35 | 103097 | 126381
7 | 28:05.07 | 4:33.03 | 126382 | 146859
8 | 32:38.10 | 5:01.55 | 146860 | 169489
9 | 37:39.65 | 4:31.57 | 169490 | 189871
10 | 42:11.47 | 3:13.23 | 189872 | 204369
11 | 45:24.70 | 5:31.15 | 204370 | 229209


Range status and errors

Selected range

Filename D:\spiralarch\Carisma - 1825.wav

Peak level 100.0 %
Extraction speed 3.8 X
Range quality 100.0 %
Copy CRC 9759E0D7
Copy OK

No errors occurred


AccurateRip summary

Track 1 accurately ripped (confidence 1) [6AA3E50E] (AR v2)
Track 2 accurately ripped (confidence 1) [8A310A93] (AR v2)
Track 3 accurately ripped (confidence 1) [DEB9D766] (AR v2)
Track 4 accurately ripped (confidence 1) [070ABD93] (AR v2)
Track 5 accurately ripped (confidence 1) [528CD8FB] (AR v2)
Track 6 accurately ripped (confidence 1) [0D43CEAF] (AR v2)
Track 7 accurately ripped (confidence 1) [F88C303B] (AR v2)
Track 8 accurately ripped (confidence 1) [B91EE1CB] (AR v2)
Track 9 accurately ripped (confidence 1) [C9CE5785] (AR v2)
Track 10 accurately ripped (confidence 1) [483A6CF1] (AR v2)
Track 11 accurately ripped (confidence 1) [9969E38D] (AR v2)

All tracks accurately ripped

End of status report

---- CUETools DB Plugin V2.1.4

[CTDB TOCID: y1oTGMkYJKdCUO8OWVZhBYfMcmc-] disk not present in database
Submit result: y1oTGMkYJKdCUO8OWVZhBYfMcmc- has been uploaded


==== Log checksum BB210BAFF966D9138D147BD738B4832696431BC67F7BEB5E42A85FFE0B2132BC ====

cue
REM GENRE "Progressive Metal"
REM DATE 1996
REM DISCID A40BF00B
REM COMMENT "ExactAudioCopy v1.0b3"
PERFORMER "Carisma"
TITLE "1825"
FILE "Carisma - 1825.flac" WAVE
TRACK 01 AUDIO
TITLE "Marriage Of Convenience"
PERFORMER "Carisma"
INDEX 00 00:00:00
INDEX 01 00:00:32
TRACK 02 AUDIO
TITLE "Wind Dreams"
PERFORMER "Carisma"
INDEX 00 05:23:67
INDEX 01 05:23:70
TRACK 03 AUDIO
TITLE "Heed My Call"
PERFORMER "Carisma"
INDEX 00 10:49:02
INDEX 01 10:51:00
TRACK 04 AUDIO
TITLE "Closing Rhyme"
PERFORMER "Carisma"
INDEX 00 14:57:67
INDEX 01 14:57:70
TRACK 05 AUDIO
TITLE "Tears In My Eyes"
PERFORMER "Carisma"
INDEX 00 19:15:20
INDEX 01 19:17:15
TRACK 06 AUDIO
TITLE "Lean On"
PERFORMER "Carisma"
INDEX 00 22:54:45
INDEX 01 22:54:47
TRACK 07 AUDIO
TITLE "Killing Tribe"
PERFORMER "Carisma"
INDEX 00 28:03:62
INDEX 01 28:05:07
TRACK 08 AUDIO
TITLE "Nothing Left (But Saying Goodbye)"
PERFORMER "Carisma"
INDEX 00 32:37:52
INDEX 01 32:38:10
TRACK 09 AUDIO
TITLE "Twisted Minds"
PERFORMER "Carisma"
INDEX 00 37:37:55
INDEX 01 37:39:65
TRACK 10 AUDIO
TITLE "Hate Is Homeless Love"
PERFORMER "Carisma"
INDEX 00 42:10:65
INDEX 01 42:11:47
TRACK 11 AUDIO
TITLE "Epilogue"
PERFORMER "Carisma"
INDEX 00 45:24:67
INDEX 01 45:24:70

_________________


Top
 Profile E-mail  
 
Display posts from previous:  Sort by  
Post new topic Reply to topic  [ 65 posts ]  Go to page Previous  1, 2, 3, 4

All times are UTC + 3 hours


Who is online

Users browsing this forum: No registered users and 1 guest


You cannot post new topics in this forum
You cannot reply to topics in this forum
You cannot edit your posts in this forum
You cannot delete your posts in this forum

Search for:
Яндекс.Метрика
Powered by phpBB © 2000, 2002, 2005, 2007 phpBB Group