\m/ 80's metal \m/

Информационно-аналитический форум "80 см пыли" (In Search We Trust) "У нас никто никуда не спешит"
Me For You - http://me-4u.com
It is currently 29 Nov 2021

All times are UTC + 3 hours

Spoiler
Chat - temporary registration for foreign users (please leave your application here)







Post new topic Reply to topic  [ 6 posts ] 
Author Message
 
PostPosted: 06 Dec 2009 
труъ антисионист
User avatar
Joined: 01 Aug 2007
Posts: 4544
Lоcаtion: Откуда и большинство из нас
Age: 40
Name: Дядя Вова
Image

Группа: Cancer
Альбом: Death Shall Rise
Год: 1991
Стиль: Death Metal
Страна: UK
Формат: Flac / Log / Cue / Covers
Размер: 259 Mb

******************************************************************************

Line Up:

John Walker - guitars, vocals
James Murphy - guitars
Ian Buchanan - bass
Carl Stokes - drums



Tracks:
01. Hung Drawn And Quartered
02. Tasteless Incest
03. Burning Casket
04. Death Shall Rise
05. Back From The Dead
06. Gruesome Tasks
07. Corpse Fire
08. Internal Decay

Log
EAC extraction logfile from 16. September 2004, 20:59 for CD
Cancer / Death Shall Rise

Used drive : PIONEER DVD-RW DVR-104 Adapter: 0 ID: 1
Read mode : Secure with NO C2, accurate stream, disable cache
Read offset correction : 48
Overread into Lead-In and Lead-Out : No

Used output format : Internal WAV Routines
44.100 Hz; 16 Bit; Stereo

Other options :
Fill up missing offset samples with silence : No
Delete leading and trailing silent blocks : No
Installed external ASPI interface

Range status and errors
Selected range
Filename C:\Cancer - Death Shall Rise\Death Shall Rise.wav

Peak level 97.7 %
Range quality 100.0 %
CRC 50E1C397
Copy OK

No errors occured

End of status report


===================================DOWNLOAD========================================
Народ - Cancer 1991 Death Shall Rise.rar
Мега - http://www.megaupload.com/?d=GPABHYG0

_________________
Image
Image


Top
 Profile  
 
 
PostPosted: 07 Dec 2009 
Персональный статус
User avatar
Joined: 29 Jan 2009
Posts: 265
Lоcаtion: Таллин, Эстония.
Age: 34
Name: Роман Юрич
Спасибо большое !

_________________
Death The Ultimate Reality
Death The Ultimate Reason To Live


Top
 Profile  
 
 
PostPosted: 09 Dec 2009 
Персональный статус
User avatar
Joined: 29 Jan 2009
Posts: 265
Lоcаtion: Таллин, Эстония.
Age: 34
Name: Роман Юрич
Куй кстати неправильный. Там файл был указан с расширением .cue вместо .flac или в крайнем случае .wav .

_________________
Death The Ultimate Reality
Death The Ultimate Reason To Live


Top
 Profile  
 
 
PostPosted: 09 Dec 2009 
труъ антисионист
User avatar
Joined: 01 Aug 2007
Posts: 4544
Lоcаtion: Откуда и большинство из нас
Age: 40
Name: Дядя Вова
MetalMilitia wrote:
Куй кстати неправильный. Там файл был указан с расширением .cue вместо .flac или в крайнем случае .wav .

Может это я по запарке такое наковырял, когда на болванку собирался нарезать, если мне память не изменяет это от команды ММТ релиз.

_________________
Image
Image


Top
 Profile  
 
 
PostPosted: 04 Jul 2014 
Персональный статус
Joined: 21 Aug 2009
Posts: 279
Age: 47
Name: alexandr
люди добрые перезалейте альбомчик :oops: :true:


Top
 Profile E-mail  
 
 
PostPosted: 27 Jul 2014 
Хиппей (support team)
User avatar
Joined: 30 Jul 2007
Posts: 123152
Lоcаtion: Киев (Kyiv, UA)
Age: 48
Name: Andrey
Дык :arrow: http://rutracker.org/forum/viewtopic.php?t=1218856

mirror: Narod l M-Cloud

log
EAC extraction logfile from 16. September 2004, 20:59 for CD
Cancer / Death Shall Rise

Used drive : PIONEER DVD-RW DVR-104 Adapter: 0 ID: 1
Read mode : Secure with NO C2, accurate stream, disable cache
Read offset correction : 48
Overread into Lead-In and Lead-Out : No

Used output format : Internal WAV Routines
44.100 Hz; 16 Bit; Stereo

Other options :
Fill up missing offset samples with silence : No
Delete leading and trailing silent blocks : No
Installed external ASPI interface


Range status and errors
Selected range
Filename C:\Cancer - Death Shall Rise\Death Shall Rise.wav

Peak level 97.7 %
Range quality 100.0 %
CRC 50E1C397
Copy OK

No errors occured

End of status report

cue
PERFORMER "Cancer"
TITLE "Death Shall Rise"
FILE "Death Shall Rise.wav" WAVE
TRACK 01 AUDIO
TITLE "Hung, Drawn And Quartered"
PERFORMER "Cancer"
INDEX 00 00:00:00
INDEX 01 00:00:30
TRACK 02 AUDIO
TITLE "Tasteless Incest"
PERFORMER "Cancer"
INDEX 01 03:25:32
TRACK 03 AUDIO
TITLE "Burning Casket"
PERFORMER "Cancer"
INDEX 01 08:19:07
TRACK 04 AUDIO
TITLE "Death Shall Rise"
PERFORMER "Cancer"
INDEX 01 12:21:62
TRACK 05 AUDIO
TITLE "Back From The Dead"
PERFORMER "Cancer"
INDEX 01 18:05:70
TRACK 06 AUDIO
TITLE "Gruesome Tasks"
PERFORMER "Cancer"
INDEX 01 23:04:60
TRACK 07 AUDIO
TITLE "Corpse Fire"
PERFORMER "Cancer"
INDEX 01 27:36:07
TRACK 08 AUDIO
TITLE "Internal Decay"
PERFORMER "Cancer"
INDEX 01 30:09:47

_________________


Top
 Profile E-mail  
 
Display posts from previous:  Sort by  
Post new topic Reply to topic  [ 6 posts ] 

All times are UTC + 3 hours


Who is online

Users browsing this forum: No registered users and 1 guest


You cannot post new topics in this forum
You cannot reply to topics in this forum
You cannot edit your posts in this forum
You cannot delete your posts in this forum

Search for:
Яндекс.Метрика
Powered by phpBB © 2000, 2002, 2005, 2007 phpBB Group