\m/ 80's metal \m/

Информационно-аналитический форум "80 см пыли" (In Search We Trust) "У нас никто никуда не спешит"
Me For You - http://me-4u.com
It is currently 01 Dec 2021

All times are UTC + 3 hours

Spoiler
Chat - temporary registration for foreign users (please leave your application here)







Post new topic Reply to topic  [ 12 posts ] 
Author Message
 
PostPosted: 03 Dec 2009 
Работнечег
User avatar
Joined: 28 Aug 2007
Posts: 6392
Lоcаtion: г. Москва
Age: 32
Name: Дима
Image

Band: Contradiction
Album: The Essence Of Anger
Label: Limited Access Records
Genre: Thrash Metal
Coutry: Germany
Format: Flac + Log + Cue
Size: 390 Mb

Line-Up:
Oliver ''Koffer'' Lux - Vocals/Guitars (Cyberya) (1989-)
Oliver Kämper - Guitars (1989-)
Andreas "Westi" Westphal - Bass (Guerrilla (Deu), Exhumator (Deu), All We Hate) (2007-)
Christoph Zelt - Drums (1995-2000, 2007-)


Tracklist:
1. Perfect Combatants 04:41
2. The Essence of Anger (feat. Leif Jensen) 04:26
3. Start the Action 04:12
4. The Spectator 04:43
5. Walk of Shame 04:09
6. For the Light 03:30
7. Death Is Now 04:55
8. Life's End 05:01
9. Collateral Carnage 03:39
10. Reign of Fear 04:00
11. Domesticated (feat. Leif Jensen) 05:01
12. Commandments 05:23
Total playing time 52:20

LOG
Exact Audio Copy V0.99 prebeta 5 from 4. May 2009

Отчёт EAC об извлечении, выполненном 3. декабря 2009, 16:28

Contradiction / The Essence Of Anger

Дисковод: PIONEER DVD-RW DVR-116D Adapter: 0 ID: 0

Режим чтения : Достоверность
Использование точного потока : Да
Отключение кэша аудио : Да
Использование указателей C2 : Нет

Коррекция смещения при чтении : 96
Способность читать области Lead-in и Lead-out : Нет
Заполнение пропущенных сэмплов тишиной : Да
Удаление блоков с тишиной в начале и конце : Нет
При вычислениях CRC использовались нулевые сэмплы : Да
Интерфейс : Встроенный Win32-интерфейс для Win NT/2000

Выходной формат : Пользовательский кодировщик
Выбранный битрейт : 32 kBit/s
Качество : Высокий
Добавление ID3-тэга : Нет
Утилита сжатия : C:\Program Files\Exact Audio Copy\Flac\flac.exe
Дополнительные параметры : -6 -V %s


TOC извлечённого CD

Трек | Старт | Длительность | Начальный сектор | Конечный сектор
---------------------------------------------------------------------
1 | 0:00.00 | 4:39.48 | 0 | 20972
2 | 4:39.48 | 4:24.07 | 20973 | 40779
3 | 9:03.55 | 4:10.74 | 40780 | 59603
4 | 13:14.54 | 4:41.19 | 59604 | 80697
5 | 17:55.73 | 4:09.22 | 80698 | 99394
6 | 22:05.20 | 3:28.54 | 99395 | 115048
7 | 25:33.74 | 4:52.69 | 115049 | 137017
8 | 30:26.68 | 4:59.12 | 137018 | 159454
9 | 35:26.05 | 3:38.66 | 159455 | 175870
10 | 39:04.71 | 3:58.29 | 175871 | 193749
11 | 43:03.25 | 5:00.50 | 193750 | 216299
12 | 48:04.00 | 5:23.14 | 216300 | 240538


Характеристики диапазона извлечения и сообщения об ошибках

Выбранный диапазон

Имя файла D:\Музыка\Lossless\Contradiction - The Essence Of Anger.wav

Пиковый уровень 100.0 %
Качество диапазона 100.0 %
CRC копии 00ECC7A4
Копирование... OK

Ошибок не произошло


AccurateRip: сводка

Трек 1 нет в базе данных
Трек 2 нет в базе данных
Трек 3 нет в базе данных
Трек 4 нет в базе данных
Трек 5 нет в базе данных
Трек 6 нет в базе данных
Трек 7 нет в базе данных
Трек 8 нет в базе данных
Трек 9 нет в базе данных
Трек 10 нет в базе данных
Трек 11 нет в базе данных
Трек 12 нет в базе данных

Ни одного трека нет в базе AccurateRip

Конец отчёта

CUE
REM GENRE "Thrash Metal"
REM DATE 2009
REM DISCID B60C870C
REM COMMENT "ExactAudioCopy v0.99pb5"
PERFORMER "Contradiction"
TITLE "The Essence Of Anger"
FILE "Contradiction - The Essence Of Anger.flac" WAVE
TRACK 01 AUDIO
TITLE "Perfect Combatants"
PERFORMER "Contradiction"
FLAGS DCP
INDEX 01 00:00:00
TRACK 02 AUDIO
TITLE "The Essence Of Anger"
PERFORMER "Contradiction"
FLAGS DCP
INDEX 00 04:39:37
INDEX 01 04:39:48
TRACK 03 AUDIO
TITLE "Start The Action"
PERFORMER "Contradiction"
FLAGS DCP
INDEX 01 09:03:55
TRACK 04 AUDIO
TITLE "The Spectator"
PERFORMER "Contradiction"
FLAGS DCP
INDEX 00 13:13:21
INDEX 01 13:14:54
TRACK 05 AUDIO
TITLE "Walk Of Shame"
PERFORMER "Contradiction"
FLAGS DCP
INDEX 00 17:54:56
INDEX 01 17:55:73
TRACK 06 AUDIO
TITLE "For The Light"
PERFORMER "Contradiction"
FLAGS DCP
INDEX 01 22:05:20
TRACK 07 AUDIO
TITLE "Death Is Now"
PERFORMER "Contradiction"
FLAGS DCP
INDEX 00 25:33:53
INDEX 01 25:33:74
TRACK 08 AUDIO
TITLE "Lifes End"
PERFORMER "Contradiction"
FLAGS DCP
INDEX 01 30:26:68
TRACK 09 AUDIO
TITLE "Collateral Carnage"
PERFORMER "Contradiction"
FLAGS DCP
INDEX 01 35:26:05
TRACK 10 AUDIO
TITLE "Reign Of Fear"
PERFORMER "Contradiction"
FLAGS DCP
INDEX 00 39:02:24
INDEX 01 39:04:71
TRACK 11 AUDIO
TITLE "Domesticated"
PERFORMER "Contradiction"
FLAGS DCP
INDEX 00 43:03:11
INDEX 01 43:03:25
TRACK 12 AUDIO
TITLE "Commandments"
PERFORMER "Contradiction"
FLAGS DCP
INDEX 00 48:01:61
INDEX 01 48:04:00

Spectrum
Image


Narod.Ru

Альбом выполнен в духе предыдущих двух работ, токо пожалуй более быстрый и тяжёлый :true:
P.S. Сканы будут через недельку-полторы.Выложу ещё парочку альбомов, а потом сразу всё отсканю и залью.


Top
 Profile E-mail  
 
 
PostPosted: 03 Dec 2009 
А может смените мне статус?..
User avatar
Joined: 17 Jan 2008
Posts: 902
Lоcаtion: Пенза
Age: 44
Name: Денис
:true:


Top
 Profile  
 
 
PostPosted: 03 Dec 2009 
Прокъмитолист
User avatar
Joined: 12 Aug 2007
Posts: 6878
Lоcаtion: Санктъ-Петербуркъ
Age: 54
Name: Олекъ
:true: :true: :true:

_________________
прокъметол - это музыко, от которово есть прок (ы)


Top
 Profile  
 
 
PostPosted: 06 Dec 2009 
Работнечег
User avatar
Joined: 28 Aug 2007
Posts: 6392
Lоcаtion: г. Москва
Age: 32
Name: Дима
Contradiction - The Essence Of Anger (2009) covers


Top
 Profile E-mail  
 
 
PostPosted: 06 Dec 2009 
Хиппей (support team)
User avatar
Joined: 30 Jul 2007
Posts: 123186
Lоcаtion: Киев (Kyiv, UA)
Age: 48
Name: Andrey
Спасибо за пиратство! :crazy: :true:

_________________


Top
 Profile E-mail  
 
 
PostPosted: 19 Mar 2010 
Thrasher
User avatar
Joined: 07 Oct 2007
Posts: 2782
Lоcаtion: Russia, Moscow
Age: 37
Name: Drunk & Evil
Дим, спасибо....пропустил это, нет возможности перезалить?

_________________
ВОДКА, БАБЫ И БЛЮЗ / 40° till death... :bodun:
One time we saw some hookers, but when we got closer, we realised it was Mötley Crüe. ©


Top
 Profile  
 
 
PostPosted: 19 Mar 2010 
Работнечег
User avatar
Joined: 28 Aug 2007
Posts: 6392
Lоcаtion: г. Москва
Age: 32
Name: Дима
Возможность есть.Постараюсь в течение следующей недели.Если что напомни.


Top
 Profile E-mail  
 
 
PostPosted: 19 Mar 2010 
Thrasher
User avatar
Joined: 07 Oct 2007
Posts: 2782
Lоcаtion: Russia, Moscow
Age: 37
Name: Drunk & Evil
Ок, спасибо.

_________________
ВОДКА, БАБЫ И БЛЮЗ / 40° till death... :bodun:
One time we saw some hookers, but when we got closer, we realised it was Mötley Crüe. ©


Top
 Profile  
 
 
PostPosted: 19 Mar 2010 
А может смените мне статус?..
User avatar
Joined: 17 Jan 2008
Posts: 902
Lоcаtion: Пенза
Age: 44
Name: Денис
-=KazgorotH=- wrote:
Ок, спасибо.

Скачай с меня...У меня еще несколько их альбомов расшаренно в лосях.....


Top
 Profile  
 
 
PostPosted: 19 Mar 2010 
Thrasher
User avatar
Joined: 07 Oct 2007
Posts: 2782
Lоcаtion: Russia, Moscow
Age: 37
Name: Drunk & Evil
ок, спасибо Денис, до кучи и Бульдозер тот возьму

_________________
ВОДКА, БАБЫ И БЛЮЗ / 40° till death... :bodun:
One time we saw some hookers, but when we got closer, we realised it was Mötley Crüe. ©


Top
 Profile  
 
 
PostPosted: 29 Mar 2010 
Работнечег
User avatar
Joined: 28 Aug 2007
Posts: 6392
Lоcаtion: г. Москва
Age: 32
Name: Дима
Ифолдер ожил и ссылки соответственно тоже.Так что убираем [reup] и качаем :smile:


Top
 Profile E-mail  
 
 
PostPosted: 12 Feb 2012 
Работнечег
User avatar
Joined: 28 Aug 2007
Posts: 6392
Lоcаtion: г. Москва
Age: 32
Name: Дима
Ссылки на фолдыре все-таки умерли, так что перезалил на народ.


Top
 Profile E-mail  
 
Display posts from previous:  Sort by  
Post new topic Reply to topic  [ 12 posts ] 

All times are UTC + 3 hours


Who is online

Users browsing this forum: No registered users and 1 guest


You cannot post new topics in this forum
You cannot reply to topics in this forum
You cannot edit your posts in this forum
You cannot delete your posts in this forum

Search for:
Яндекс.Метрика
Powered by phpBB © 2000, 2002, 2005, 2007 phpBB Group