\m/ 80's metal \m/

Информационно-аналитический форум "80 см пыли" (In Search We Trust) "У нас никто никуда не спешит"
Me For You - http://me-4u.com
It is currently 06 Dec 2021

All times are UTC + 3 hours

Spoiler
Chat - temporary registration for foreign users (please leave your application here)







Post new topic Reply to topic  [ 8 posts ] 
Author Message
 
PostPosted: 28 Nov 2009 
Я набрал 1000 сообщений!
Joined: 02 Aug 2007
Posts: 1620
Lоcаtion: пос. Удельная
Age: 44
Name: Стас
Image

1. Prelude
2. Far Away
3. Hate Me
4. Humanity
5. Believe
6. Idols
7. Lost Innocence
8. Get Out of My Way
9. Dark Moon
10. Shadow

ифолдер

P.S. Я вчера вечером уже начал было оформлять запрос на этот альбом, картинку вставил, треклист, но решил таки последний раз поискать, а он взял и нашёлся, как гриб в лесу - под тем листиком, где, я то ли забыл посмотреть, то ли не заметил... Но раз уж начал, то решил его в анонсы сунуть.
Тем более, что другой альбом с этой же тётенькой у микрофона мне так найти пока и не удалось ;)


Top
 Profile  
 
 
PostPosted: 01 Dec 2009 
Работнечег
User avatar
Joined: 28 Aug 2007
Posts: 6392
Lоcаtion: г. Москва
Age: 32
Name: Дима
А битрейт какой? у меня вроде есть альбомчик...


Top
 Profile E-mail  
 
 
PostPosted: 23 Sep 2017 
Power Metal Maniac
User avatar
Joined: 09 Aug 2008
Posts: 7484
Lоcаtion: Москва
Age: 43
Name: Егор
Хороший Epic Heavy/Power Metal с женским вокалом. Похоже, пожалуй, на White Skull, вокалистка с мощным голосом, но не чрезмерно хриплым. Темп довольно бодрый, хотя почти всегда песни разбавляются эпическими неспешными вставками, лишь титульная Far Away наиболее бескопромиссная. Хотя лучшая, все же Dark Moon, с замечательными цепляющими моментами.
Вообще, кроме мутной заключительной акустической симфо-роковой баллады, все песни на высоте.
4.9/6.0 (8.5/10)
23.09/2017

_________________
Long Live Metal!


Top
 Profile  
 
 
PostPosted: 05 Oct 2017 
Хиппей (support team)
User avatar
Joined: 30 Jul 2007
Posts: 123253
Lоcаtion: Киев (Kyiv, UA)
Age: 48
Name: Andrey
Crushing Blow - 2004 - Far Away [320]

mirror: Depos l Narod l M-Cloud l Drop

Не моя тема :nea:
Тётка орёт, кочевряжится. Музыка тоже модна, активно, но одновременно и фригидна.
Егор выше сказал стилистику.
От меня без оценки.

_________________


Top
 Profile E-mail  
 
 
PostPosted: 05 Oct 2017 
Хиппей (support team)
User avatar
Joined: 30 Jul 2007
Posts: 123253
Lоcаtion: Киев (Kyiv, UA)
Age: 48
Name: Andrey
Тем более, что другой альбом с этой же тётенькой у микрофона мне так найти пока и не удалось ;)

Темы объединены в одну :dance:

_________________


Top
 Profile E-mail  
 
 
PostPosted: 05 Oct 2017 
Хиппей (support team)
User avatar
Joined: 30 Jul 2007
Posts: 123253
Lоcаtion: Киев (Kyiv, UA)
Age: 48
Name: Andrey
Тьху, с перенедопою только щас понял, что группы это разные, а тётка в них одна :fingal:
Разделяю снова, эх :tro:

_________________


Top
 Profile E-mail  
 
 
PostPosted: 05 Oct 2017 
Хиппей (support team)
User avatar
Joined: 30 Jul 2007
Posts: 123253
Lоcаtion: Киев (Kyiv, UA)
Age: 48
Name: Andrey
Crushing Blow - 2010 - Cease Fire [flac]

Image ImageImage

mirror: Depos l Narod l M-Cloud l Drop

Ну вот, совсем иное ж дело. Группа заиграла интересный разноплановый хэви в рамках стиля.
Убрала неуместую хрень в виде модного хэви-павера, симфо-вставок и экзерцизмов вокалистки, которая начала петь обычным и приятным (но не сопливым) голосом и альбом слушается уже на урряя.
Соло-гитарист так же понравился своим ну очень уместными запилами. Иногда неоклассическими :meloman:

7/10

Песня "Дримс" явно дань Пристам :meloman:

Image Image
Image Image

log
Exact Audio Copy V1.0 beta 3 from 29. August 2011

EAC extraction logfile from 7. June 2012, 17:59

Crushing Blow / Cease Fire

Used drive : Optiarc DVD RW AD-7260S Adapter: 1 ID: 1

Read mode : Secure
Utilize accurate stream : Yes
Defeat audio cache : Yes
Make use of C2 pointers : No

Read offset correction : 48
Overread into Lead-In and Lead-Out : No
Fill up missing offset samples with silence : Yes
Delete leading and trailing silent blocks : No
Null samples used in CRC calculations : Yes
Used interface : Native Win32 interface for Win NT & 2000

Used output format : Internal WAV Routines
Sample format : 44.100 Hz; 16 Bit; Stereo


TOC of the extracted CD

Track | Start | Length | Start sector | End sector
---------------------------------------------------------
1 | 0:00.00 | 1:16.30 | 0 | 5729
2 | 1:16.30 | 4:03.59 | 5730 | 24013
3 | 5:20.14 | 5:23.67 | 24014 | 48305
4 | 10:44.06 | 5:31.58 | 48306 | 73188
5 | 16:15.64 | 4:51.10 | 73189 | 95023
6 | 21:06.74 | 4:49.13 | 95024 | 116711
7 | 25:56.12 | 4:58.31 | 116712 | 139092
8 | 30:54.43 | 4:49.00 | 139093 | 160767
9 | 35:43.43 | 3:45.56 | 160768 | 177698
10 | 39:29.24 | 4:50.01 | 177699 | 199449
11 | 44:19.25 | 5:27.34 | 199450 | 224008


Range status and errors

Selected range

Filename C:\Crushing Blow - 2010 - Cease Fire.wav

Peak level 99.9 %
Extraction speed 4.0 X
Range quality 100.0 %
Test CRC 11ABFC2F
Copy CRC 11ABFC2F
Copy OK

No errors occurred


AccurateRip summary

Track 1 not present in database
Track 2 not present in database
Track 3 not present in database
Track 4 not present in database
Track 5 not present in database
Track 6 not present in database
Track 7 not present in database
Track 8 not present in database
Track 9 not present in database
Track 10 not present in database
Track 11 not present in database

None of the tracks are present in the AccurateRip database

End of status report

---- CUETools DB Plugin V2.1.4

[CTDB TOCID: 1n.QhtrAaORRQO1Z7zT3JzVZPHc-] disk not present in database
Submit result: 1n.QhtrAaORRQO1Z7zT3JzVZPHc- has been uploaded


==== Log checksum 81B6F3C46D79F2160EA2D48D77DA87773D183D4D08E735B24EA5FB9F0C413C37 ====

cue
REM GENRE "Heavy Metal"
REM DATE 2010
REM DISCID 9F0BAA0B
REM COMMENT "ExactAudioCopy v1.0b3"
PERFORMER "Crushing Blow"
TITLE "Cease Fire"
FILE "Crushing Blow - 2010 - Cease Fire.wav" WAVE
TRACK 01 AUDIO
TITLE "Intro"
PERFORMER "Crushing Blow"
INDEX 01 00:00:00
TRACK 02 AUDIO
TITLE "Wizard's Tale"
PERFORMER "Crushing Blow"
INDEX 01 01:16:30
TRACK 03 AUDIO
TITLE "Redemption"
PERFORMER "Crushing Blow"
INDEX 01 05:20:14
TRACK 04 AUDIO
TITLE "Shadow"
PERFORMER "Crushing Blow"
INDEX 01 10:44:06
TRACK 05 AUDIO
TITLE "Dreams"
PERFORMER "Crushing Blow"
INDEX 01 16:15:64
TRACK 06 AUDIO
TITLE "Cease Fire"
PERFORMER "Crushing Blow"
INDEX 01 21:06:74
TRACK 07 AUDIO
TITLE "Rise Your Soul"
PERFORMER "Crushing Blow"
INDEX 01 25:56:12
TRACK 08 AUDIO
TITLE "Tears Of Heart"
PERFORMER "Crushing Blow"
INDEX 01 30:54:43
TRACK 09 AUDIO
TITLE "Memories"
PERFORMER "Crushing Blow"
INDEX 01 35:43:43
TRACK 10 AUDIO
TITLE "My Venom"
PERFORMER "Crushing Blow"
INDEX 01 39:29:24
TRACK 11 AUDIO
TITLE "The Prophecies"
PERFORMER "Crushing Blow"
INDEX 01 44:19:25

_________________


Top
 Profile E-mail  
 
 
PostPosted: 05 Oct 2017 
Хиппей (support team)
User avatar
Joined: 30 Jul 2007
Posts: 123253
Lоcаtion: Киев (Kyiv, UA)
Age: 48
Name: Andrey
После нескольких прослушиваний внимательных всё ж забираю альбом в личные топы :kro: :kro: :kro:
Всем спасибо за знакомство с группой и мне за терпение и умение не выбросить то, что ещё не распаковал, но уже решил заранее выбросить :thanx:

_________________


Top
 Profile E-mail  
 
Display posts from previous:  Sort by  
Post new topic Reply to topic  [ 8 posts ] 

All times are UTC + 3 hours


Who is online

Users browsing this forum: No registered users and 1 guest


You cannot post new topics in this forum
You cannot reply to topics in this forum
You cannot edit your posts in this forum
You cannot delete your posts in this forum

Search for:
Яндекс.Метрика
cron
Powered by phpBB © 2000, 2002, 2005, 2007 phpBB Group