\m/ 80's metal \m/

Информационно-аналитический форум "80 см пыли" (In Search We Trust) "У нас никто никуда не спешит"
Me For You - http://me-4u.com
It is currently 19 Jan 2021

All times are UTC + 3 hours

Spoiler
Chat - temporary registration for foreign users (please leave your application here)







Post new topic Reply to topic  [ 1 post ] 
Author Message
 
PostPosted: 22 Nov 2009 
Хиппей (support team)
User avatar
Joined: 30 Jul 2007
Posts: 119809
Lоcаtion: Киев (Kyiv, UA)
Age: 47
Name: Andrey
Cynic - 1993 - Focus (remastered 2004) [flac]

Image

Genre: Technical Progressive Thrash-Death
Location: USA
Format: flac+cue+log+covers
Size: 505 Mb


Quote:
Re-issued in '04 by Roadrunner. The album was remastered, has 6 bonus tracks,
including three '04 remixes, and three Portal songs, a deluxe booklet containing
new artwork, new liner notes, previously unseen pictures and a personal message
from Paul Masvidal.


    1. Veil of Maya - 05:23
    2. Celestial Voyage - 03:40
    3. The Eagle Nature - 03:31
    4. Sentiment - 04:24
    5. I'm But a Wave To... - 05:31
    6. Uroboric Forms - 03:32
    7. Textures - 04:42
    8. How Could I - 05:29
    Bonus Tracks:
    9. Veil of Maya [2004 Remix] (5:21)
    10. I'm But a Wave To... [2004 Remix] (5:21)
    11. How Could I [2004 Remix] (6:19)
    12. Cosmos (4:21)
    13. The Circle's Gone (5:20)
    14. Endless Endeavours (9:55)

Источник: Torrents.ru

Mega
Narod

Есть еще оригинальное издание. Нужно кому-то? :vic:

ac.rip
$ cdparanoia -z -O 12 '[]-' focusrem.wav
cdparanoia III release 10.0 (June 10, 2008)

Ripping from sector 0 (track 1 [0:00.00])
to sector 326695 (track 14 [9:55.56])

outputting to focusrem.wav



Done.


$ ARCue.pl focusrem.wav.cue
focusrem.wav.cue:

Checking AccurateRip database

Track Ripping Status [Disc ID: 0021c255-a411030e]

1 Accurately Ripped (confidence 19) [70e8b36a]
2 Accurately Ripped (confidence 19) [e68c939b]
3 Accurately Ripped (confidence 19) [621a2e17]
4 Accurately Ripped (confidence 19) [173ec067]
5 Accurately Ripped (confidence 19) [c109a45a]
6 Accurately Ripped (confidence 19) [4780747b]
7 Accurately Ripped (confidence 19) [cbd03be7]
8 Accurately Ripped (confidence 19) [c9a15873]
9 Accurately Ripped (confidence 18) [ef050dad]
10 Accurately Ripped (confidence 18) [c924d7fa]
11 Accurately Ripped (confidence 18) [89c40b8d]
12 Accurately Ripped (confidence 19) [1f7786d3]
13 Accurately Ripped (confidence 19) [59d1e295]
14 Accurately Ripped (confidence 19) [d2329ffe]

_______________________

All Tracks Accurately Ripped.


cue
CATALOG 0016861825829
FILE "focusrem.flac" FLAC
PERFORMER "Cynic"
TITLE "Focus"
TRACK 01 AUDIO
ISRC NLA329300800
TITLE "Veil Of Maya"
INDEX 01 00:00:00
TRACK 02 AUDIO
ISRC NLA329300810
TITLE "Celestial Voyage"
INDEX 01 05:20:42
TRACK 03 AUDIO
ISRC NLA329300820
TITLE "The Eagle Nature"
INDEX 01 08:57:70
TRACK 04 AUDIO
ISRC NLA329300830
TITLE "Sentiment"
INDEX 01 12:25:70
TRACK 05 AUDIO
ISRC NLA329300840
TITLE "I'm But A Wave To..."
INDEX 01 16:50:17
TRACK 06 AUDIO
ISRC NLA329300850
TITLE "Uroboric Forms"
INDEX 01 22:18:17
TRACK 07 AUDIO
ISRC NLA329300860
TITLE "Textures"
INDEX 01 25:48:27
TRACK 08 AUDIO
ISRC NLA329300870
TITLE "How Could I"
INDEX 01 30:28:50
TRACK 09 AUDIO
ISRC NLA320480914
TITLE "Veil Of Maya (2004 Remix)"
INDEX 00 35:54:33
INDEX 01 35:56:32
TRACK 10 AUDIO
ISRC NLA320480907
TITLE "I'm But A Wave To... (2004 Remix)"
INDEX 00 41:16:30
INDEX 01 41:18:22
TRACK 11 AUDIO
ISRC NLA320480905
TITLE "How Could I (2004 Remix)"
INDEX 00 46:37:28
INDEX 01 46:39:19
TRACK 12 AUDIO
ISRC NLA320480903
TITLE "Cosmos"
INDEX 00 52:57:08
INDEX 01 52:59:07
TRACK 13 AUDIO
ISRC NLA320480911
TITLE "The Circle's Gone"
INDEX 00 57:18:05
INDEX 01 57:20:04
TRACK 14 AUDIO
ISRC NLA320480904
TITLE "Endless Endeavors"
INDEX 00 62:38:15
INDEX 01 62:40:14

_________________


Top
 Profile E-mail  
 
Display posts from previous:  Sort by  
Post new topic Reply to topic  [ 1 post ] 

All times are UTC + 3 hours


Who is online

Users browsing this forum: No registered users and 3 guests


You cannot post new topics in this forum
You cannot reply to topics in this forum
You cannot edit your posts in this forum
You cannot delete your posts in this forum
You cannot post attachments in this forum

Search for:
Яндекс.Метрика
Powered by phpBB © 2000, 2002, 2005, 2007 phpBB Group