\m/ 80's metal \m/

Информационно-аналитический форум "80 см пыли" (In Search We Trust) "У нас никто никуда не спешит"
Me For You - http://me-4u.com
It is currently 06 Dec 2021

All times are UTC + 3 hours

Spoiler
Chat - temporary registration for foreign users (please leave your application here)







Post new topic Reply to topic  [ 11 posts ] 
Author Message
 
PostPosted: 22 Nov 2009 
Хиппей (support team)
User avatar
Joined: 30 Jul 2007
Posts: 123253
Lоcаtion: Киев (Kyiv, UA)
Age: 48
Name: Andrey
Cynic - 2008 - Traced In Air (Japan) [flac]

Image

Genre: Technical Progressive Fusion Metal
Location: USA
Format: flac+cue+log+covers
Size: 278 Mb


    1. Nunc Fluens - 02:55
    2. The Space For This - 05:46
    3. Evolutionary Sleeper - 03:34
    4. Integral Birth - 03:52
    5. The Unknown Guest - 04:12
    6. Adam's Murmur - 03:28
    7. King of Those Who Know - 06:08
    8. Nunc Stans - 04:12
    Japanese bonus track:
    9. Adam's Murmur - Demo Version

    TPT: 38:06

Mega
Narod

Источник: Torrents.ru

С первого раза альбомчик показался малость попсовеньким. Дальше вкурил - норм. Очень красиво. Местами.
Правда нет былой мрачности и атмосферности. Хотя это с лихвой заменено разнообразием, что, лично для меня, важнее.


log
Exact Audio Copy V0.99 prebeta 4 from 23. January 2008

EAC extraction logfile from 26. January 2009, 19:18

Cynic / Traced In Air (Japan)

Used drive : TSSTcorpCDRWDVD TS-H492C Adapter: 0 ID: 0

Read mode : Secure
Utilize accurate stream : Yes
Defeat audio cache : Yes
Make use of C2 pointers : No

Read offset correction : 6
Overread into Lead-In and Lead-Out : No
Fill up missing offset samples with silence : Yes
Delete leading and trailing silent blocks : No
Null samples used in CRC calculations : No
Used interface : Native Win32 interface for Win NT & 2000

Used output format : Internal WAV Routines
Sample format : 44.100 Hz; 16 Bit; Stereo


TOC of the extracted CD

Track | Start | Length | Start sector | End sector
---------------------------------------------------------
1 | 0:00.00 | 2:56.61 | 0 | 13260
2 | 2:56.61 | 5:46.52 | 13261 | 39262
3 | 8:43.38 | 3:35.61 | 39263 | 55448
4 | 12:19.24 | 3:52.58 | 55449 | 72906
5 | 16:12.07 | 4:13.49 | 72907 | 91930
6 | 20:25.56 | 3:29.25 | 91931 | 107630
7 | 23:55.06 | 6:08.64 | 107631 | 135294
8 | 30:03.70 | 4:34.26 | 135295 | 155870
9 | 34:38.21 | 3:28.06 | 155871 | 171476


Range status and errors

Selected range

Filename C:\TEMP\tracedjpn2.wav

Peak level 100.0 %
Range quality 100.0 %
Copy CRC 554843ED
Copy OK

No errors occurred


AccurateRip summary

Track 1 not present in database
Track 2 not present in database
Track 3 not present in database
Track 4 not present in database
Track 5 not present in database
Track 6 not present in database
Track 7 not present in database
Track 8 not present in database
Track 9 not present in database

None of the tracks are present in the AccurateRip database

End of status report


cue
CATALOG 0822603118223
FILE "tracedjpn.flac" FLAC
PERFORMER "Cynic"
TITLE "Traced In Air (Japan)"
TRACK 01 AUDIO
ISRC FR33T0818201
TITLE "Nunc Fluens"
INDEX 01 00:00:00
TRACK 02 AUDIO
ISRC FR33T0818202
TITLE "The Space For This"
INDEX 01 02:56:61
TRACK 03 AUDIO
ISRC FR33T0818203
TITLE "Evolutionary Sleeper"
INDEX 01 08:43:38
TRACK 04 AUDIO
ISRC FR33T0818204
TITLE "Integral Birth"
INDEX 01 12:19:24
TRACK 05 AUDIO
ISRC FR33T0818205
TITLE "The Unknown Guest"
INDEX 01 16:12:07
TRACK 06 AUDIO
ISRC FR33T0818206
TITLE "Adam's Murmur"
INDEX 01 20:25:56
TRACK 07 AUDIO
ISRC FR33T0818207
TITLE "King Of Those Who Know"
INDEX 01 23:55:06
TRACK 08 AUDIO
ISRC FR33T0818208
TITLE "Nunc Stans"
INDEX 01 30:03:70
TRACK 09 AUDIO
ISRC FR33T0818209
TITLE "Adam's Murmur (Demo Version)"
INDEX 01 34:38:21

_________________


Top
 Profile E-mail  
 
 
PostPosted: 22 Nov 2009 
5-speed satisfactor
User avatar
Joined: 16 Feb 2009
Posts: 3961
Lоcаtion: New York, USA
Age: 43
Name: Leonid
:thanx:

_________________
Death rules! Metal to all who oppose!


Top
 Profile  
 
 
PostPosted: 22 Nov 2009 
труъ антисионист
User avatar
Joined: 01 Aug 2007
Posts: 4544
Lоcаtion: Откуда и большинство из нас
Age: 40
Name: Дядя Вова
Чего это неформат, да и ещё и не антикварный на форуме делает? :crazy:

_________________
Image
Image


Top
 Profile  
 
 
PostPosted: 22 Nov 2009 
Thrasher
User avatar
Joined: 07 Oct 2007
Posts: 2782
Lоcаtion: Russia, Moscow
Age: 37
Name: Drunk & Evil
Угу, егож на каждом углу наволом :nea:

_________________
ВОДКА, БАБЫ И БЛЮЗ / 40° till death... :bodun:
One time we saw some hookers, but when we got closer, we realised it was Mötley Crüe. ©


Top
 Profile  
 
 
PostPosted: 22 Nov 2009 
Хиппей (support team)
User avatar
Joined: 30 Jul 2007
Posts: 123253
Lоcаtion: Киев (Kyiv, UA)
Age: 48
Name: Andrey
Дык, формат это. И попросили его залить еще до написания официальных правил :pavlik:

А вообще, кто здесь Стук Мойо заливал? :crazy:

_________________


Top
 Profile E-mail  
 
 
PostPosted: 22 Nov 2009 
труъ антисионист
User avatar
Joined: 01 Aug 2007
Posts: 4544
Lоcаtion: Откуда и большинство из нас
Age: 40
Name: Дядя Вова
Так тут и Body Count вроде пробегал :crazy:

_________________
Image
Image


Top
 Profile  
 
 
PostPosted: 22 Nov 2009 
Хиппей (support team)
User avatar
Joined: 30 Jul 2007
Posts: 123253
Lоcаtion: Киев (Kyiv, UA)
Age: 48
Name: Andrey
Бадикаунт йа заказывал :true:

_________________


Top
 Profile E-mail  
 
 
PostPosted: 22 Nov 2009 
труъ антисионист
User avatar
Joined: 01 Aug 2007
Posts: 4544
Lоcаtion: Откуда и большинство из нас
Age: 40
Name: Дядя Вова
Scatterbrain wrote:
Бадикаунт йа заказывал :true:

Вот и я про то же :crazy: Могу Dowenset положить или ещё чего ваша душа пожелает? Олд скул в своём роде :true:

_________________
Image
Image


Top
 Profile  
 
 
PostPosted: 22 Nov 2009 
Хиппей (support team)
User avatar
Joined: 30 Jul 2007
Posts: 123253
Lоcаtion: Киев (Kyiv, UA)
Age: 48
Name: Andrey
Пасибо, мне уже ничо нинада давно :crazy: В плане музыки, конечно :nunu:

_________________


Top
 Profile E-mail  
 
 
PostPosted: 26 Nov 2009 
А может смените мне статус?..
User avatar
Joined: 08 Nov 2007
Posts: 638
Lоcаtion: Crimea, UA
Age: 35
Name: Анатолий
Отличный альбом

Я с Шоном Райнертом: :true:

Image


Top
 Profile  
 
 
PostPosted: 14 Aug 2019 
Хиппей (support team)
User avatar
Joined: 30 Jul 2007
Posts: 123253
Lоcаtion: Киев (Kyiv, UA)
Age: 48
Name: Andrey
CYNIC - Traced in Air remix/master (2019)


_________________


Top
 Profile E-mail  
 
Display posts from previous:  Sort by  
Post new topic Reply to topic  [ 11 posts ] 

All times are UTC + 3 hours


Who is online

Users browsing this forum: No registered users and 1 guest


You cannot post new topics in this forum
You cannot reply to topics in this forum
You cannot edit your posts in this forum
You cannot delete your posts in this forum

Search for:
Яндекс.Метрика
Powered by phpBB © 2000, 2002, 2005, 2007 phpBB Group