\m/ 80's metal \m/

Информационно-аналитический форум "80 см пыли" (In Search We Trust) "У нас никто никуда не спешит"
Me For You - http://me-4u.com
It is currently 06 Dec 2021

All times are UTC + 3 hours

Spoiler
Chat - temporary registration for foreign users (please leave your application here)







Post new topic Reply to topic  [ 3 posts ] 
Author Message
 
PostPosted: 21 Sep 2009 
Генеральный thrasher
User avatar
Joined: 03 Oct 2008
Posts: 3751
Lоcаtion: Ханты-Мансийский АО
Age: 46
Name: Сергей
Image

Year:1990
Style:Thrash/Crossover
Country:U.S.A.
Audio:flac+cue+log
Size:213Mb
Label:Metal Blade Records

Tracklist:
1. Born Too Soon 05:24
2. Still Born, Again 02:42
3. Insanity by the Numbers 02:47
4. Co-Exist 04:18
5. Deathstyles of the Poor and Lowly 02:05
6. One Thing Or Another 03:21
7. Divided Minds 03:53
8. Speak Your Peace 03:07
9. Killing Time 05:38

Line-up:
Dave Hollingsworth - Vocals
Brett Davis - Bass
Les Evans - Guitars
Brain Lehfeldt - Drums

Cue
TITLE "Speak Your Peace"
FILE "Cryptic Slaughter - Speak Your Peace.flac" WAVE
TRACK 01 AUDIO
TITLE "Born too soon"
PERFORMER "Cryptic Slaughter"
INDEX 00 00:00:00
INDEX 01 00:00:32
TRACK 02 AUDIO
TITLE "Still born, again"
PERFORMER "Cryptic Slaughter"
INDEX 01 05:24:72
TRACK 03 AUDIO
TITLE "Insanity by the numbers"
PERFORMER "Cryptic Slaughter"
INDEX 01 08:07:37
TRACK 04 AUDIO
TITLE "Co-exist"
PERFORMER "Cryptic Slaughter"
INDEX 01 10:54:15
TRACK 05 AUDIO
TITLE "Deathstyles of the poor & lowly"
PERFORMER "Cryptic Slaughter"
INDEX 01 15:12:32
TRACK 06 AUDIO
TITLE "One thing or another"
PERFORMER "Cryptic Slaughter"
INDEX 01 17:17:02
TRACK 07 AUDIO
TITLE "Divided minds"
PERFORMER "Cryptic Slaughter"
INDEX 01 20:38:45
TRACK 08 AUDIO
TITLE "Speak your peace"
PERFORMER "Cryptic Slaughter"
INDEX 01 24:31:05
TRACK 09 AUDIO
TITLE "Killing time"
PERFORMER "Cryptic Slaughter"
INDEX 01 27:38:15


Log
Exact Audio Copy V0.99 prebeta 4 from 23. January 2008

Отчёт EAC об извлечении, выполненном 20. сентября 2009, 19:27

Cryptic Slaughter / Speak Your Peace

Дисковод: ATAPI DVD A DH20A4P Adapter: 0 ID: 1

Режим чтения : Достоверность
Использование точного потока : Да
Отключение кэша аудио : Да
Использование указателей C2 : Нет

Коррекция смещения при чтении : 6
Способность читать области Lead-in и Lead-out : Нет
Заполнение пропущенных сэмплов тишиной : Да
Удаление блоков с тишиной в начале и конце : Нет
При вычислениях CRC использовались нулевые сэмплы : Нет
Интерфейс : Встроенный Win32-интерфейс для Win NT/2000

Выходной формат : Пользовательский кодировщик
Выбранный битрейт : 768 kBit/s
Качество : Высокий
Добавление ID3-тэга : Нет
Утилита сжатия : C:\Program Files\Exact Audio Copy\FLAC\FLAC.EXE
Дополнительные параметры : -6 -V -T "ARTIST=%a" -T "TITLE=%t" -T "ALBUM=%g" -T "DATE=%y" -T "TRACKNUMBER=%n" -T "GENRE=%m" -T "COMMENT=%e" %s -o %d


TOC извлечённого CD

Трек | Старт | Длительность | Начальный сектор | Конечный сектор
---------------------------------------------------------------------
1 | 0:00.32 | 5:24.40 | 32 | 24371
2 | 5:24.72 | 2:42.40 | 24372 | 36561
3 | 8:07.37 | 2:46.53 | 36562 | 49064
4 | 10:54.15 | 4:18.17 | 49065 | 68431
5 | 15:12.32 | 2:04.45 | 68432 | 77776
6 | 17:17.02 | 3:21.43 | 77777 | 92894
7 | 20:38.45 | 3:52.35 | 92895 | 110329
8 | 24:31.05 | 3:07.10 | 110330 | 124364
9 | 27:38.15 | 5:37.70 | 124365 | 149709


Характеристики диапазона извлечения и сообщения об ошибках

Выбранный диапазон

Имя файла D:\Lossless Music\Cryptic Slaughter - Speak Your Peace.wav

Пиковый уровень 100.0 %
Качество диапазона 100.0 %
CRC копии 60855285
Копирование... OK

Ошибок не произошло


Megaupload


Top
 Profile  
 
 
PostPosted: 21 Sep 2009 
Хиппей (support team)
User avatar
Joined: 30 Jul 2007
Posts: 123254
Lоcаtion: Киев (Kyiv, UA)
Age: 48
Name: Andrey
:true:

_________________


Top
 Profile E-mail  
 
 
PostPosted: 18 Mar 2010 
Thrasher
User avatar
Joined: 07 Oct 2007
Posts: 2782
Lоcаtion: Russia, Moscow
Age: 37
Name: Drunk & Evil
Спасибо! :thanx:

_________________
ВОДКА, БАБЫ И БЛЮЗ / 40° till death... :bodun:
One time we saw some hookers, but when we got closer, we realised it was Mötley Crüe. ©


Top
 Profile  
 
Display posts from previous:  Sort by  
Post new topic Reply to topic  [ 3 posts ] 

All times are UTC + 3 hours


Who is online

Users browsing this forum: No registered users and 1 guest


You cannot post new topics in this forum
You cannot reply to topics in this forum
You cannot edit your posts in this forum
You cannot delete your posts in this forum

Search for:
Яндекс.Метрика
Powered by phpBB © 2000, 2002, 2005, 2007 phpBB Group