\m/ 80's metal \m/

Информационно-аналитический форум "80 см пыли" (In Search We Trust) "У нас никто никуда не спешит"
Me For You - http://me-4u.com
It is currently 23 Jan 2021

All times are UTC + 3 hours

Spoiler
Chat - temporary registration for foreign users (please leave your application here)







Post new topic Reply to topic  [ 6 posts ] 
Author Message
 
PostPosted: 17 Sep 2009 
Генеральный thrasher
User avatar
Joined: 03 Oct 2008
Posts: 3751
Lоcаtion: Ханты-Мансийский АО
Age: 45
Name: Сергей
Image

Year:1987 (Re-Issue 2003)
Label:Relapse Records
Style:Thrash/Crossover
Country: U.S.A.
Format:Flac+Cue+Log
Size:453Mb

Tracklist:
1.Money Talks
2.Set Your Own Pace
3.Could Be Worse
4.Wake Up
5.Freedom of Expression?
6.Menace to Mankind
7.Too Much, Too Little
8.Human Contrast
9.Tables Are Turned
10.Positively
11.All Wrong
12.American Heroes
13.Song X (unreleased Stream of Consciousness Rehearsal)
14.Overcome (Stream of Consciousness Rehearsal)
15.Deteriorate (Stream of Consciousness Rehearsal)
16.See You Through (Stream of Consciousness Rehearsal)
17.One Last Thought (Stream of Consciousness Rehearsal)
18.Just Went Black - ((live Detroit 7-14-88)
19.Circus of Fools (live Houston 7-6-88)
20.Aggravated (live Houston 7-6-88)
21.Freedom of Expression? (live Houston 7-6-88)

Line-Up:
Bill Crooks : Vocals
Les Evans : Guitar
Rob Nicholson : Bass, Backing Vocals
Scott Peterson : Drums

Cue:
REM GENRE Punk
REM DATE 2003
REM DISCID 190E3E15
REM COMMENT "ExactAudioCopy v0.99pb4"
PERFORMER "Cryptic Slaughter"
TITLE "Money Talks (Reissue)"
FILE "Cryptic Slaughter - Money Talks (Reissue).flac" WAVE
TRACK 01 AUDIO
TITLE "Money Talks"
PERFORMER "Cryptic Slaughter"
INDEX 01 00:00:00
TRACK 02 AUDIO
TITLE "Set Your Own Pace"
PERFORMER "Cryptic Slaughter"
INDEX 01 03:41:03
TRACK 03 AUDIO
TITLE "Could Be Worse"
PERFORMER "Cryptic Slaughter"
INDEX 01 05:02:53
TRACK 04 AUDIO
TITLE "Wake Up"
PERFORMER "Cryptic Slaughter"
INDEX 01 08:49:58
TRACK 05 AUDIO
TITLE "Freedom Of Expression?"
PERFORMER "Cryptic Slaughter"
INDEX 01 10:56:56
TRACK 06 AUDIO
TITLE "Menace To Mankind"
PERFORMER "Cryptic Slaughter"
INDEX 01 14:16:64
TRACK 07 AUDIO
TITLE "Too Much, Too Little"
PERFORMER "Cryptic Slaughter"
INDEX 01 17:41:31
TRACK 08 AUDIO
TITLE "Human Contrast"
PERFORMER "Cryptic Slaughter"
INDEX 01 19:28:42
TRACK 09 AUDIO
TITLE "Tables Are Turned"
PERFORMER "Cryptic Slaughter"
INDEX 01 22:02:19
TRACK 10 AUDIO
TITLE "Positively"
PERFORMER "Cryptic Slaughter"
INDEX 01 25:51:48
TRACK 11 AUDIO
TITLE "All Wrong"
PERFORMER "Cryptic Slaughter"
INDEX 01 27:32:69
TRACK 12 AUDIO
TITLE "American Heroes"
PERFORMER "Cryptic Slaughter"
INDEX 01 29:47:40
TRACK 13 AUDIO
TITLE "Song X (unreleased Stream of Consciousness Rehearsal)"
PERFORMER "Cryptic Slaughter"
INDEX 01 33:43:00
TRACK 14 AUDIO
TITLE "Overcome (Stream of Consciousness Rehearsal)"
PERFORMER "Cryptic Slaughter"
INDEX 01 36:25:44
TRACK 15 AUDIO
TITLE "Deteriorate (Stream of Consciousness Rehearsal)"
PERFORMER "Cryptic Slaughter"
INDEX 01 39:33:56
TRACK 16 AUDIO
TITLE "See Through You (Stream of Consciousness Rehearsal)"
PERFORMER "Cryptic Slaughter"
INDEX 01 41:47:12
TRACK 17 AUDIO
TITLE "One Last Thought (Stream of Consciousness Rehearsal)"
PERFORMER "Cryptic Slaughter"
INDEX 01 44:31:41
TRACK 18 AUDIO
TITLE "Just Went Black (live Detroit 7-14-88)"
PERFORMER "Cryptic Slaughter"
INDEX 01 46:52:55
TRACK 19 AUDIO
TITLE "Circus of Fools (live Houston 7-6-88)"
PERFORMER "Cryptic Slaughter"
INDEX 01 50:24:14
TRACK 20 AUDIO
TITLE "Aggravated (live Houston 7-6-88)"
PERFORMER "Cryptic Slaughter"
INDEX 01 54:29:38
TRACK 21 AUDIO
TITLE "Freedom Of Expression? (live Houston 7-6-88)"
PERFORMER "Cryptic Slaughter"
INDEX 01 56:54:50


Log
Exact Audio Copy V0.99 prebeta 4 from 23. January 2008

Отчёт EAC об извлечении, выполненном 15. сентября 2009, 11:04

Cryptic Slaughter / Money Talks (Reissue)

Дисковод: ATAPI DVD A DH20A4P Adapter: 0 ID: 1

Режим чтения : Достоверность
Использование точного потока : Да
Отключение кэша аудио : Да
Использование указателей C2 : Нет

Коррекция смещения при чтении : 6
Способность читать области Lead-in и Lead-out : Нет
Заполнение пропущенных сэмплов тишиной : Да
Удаление блоков с тишиной в начале и конце : Нет
При вычислениях CRC использовались нулевые сэмплы : Нет
Интерфейс : Встроенный Win32-интерфейс для Win NT/2000

Выходной формат : Пользовательский кодировщик
Выбранный битрейт : 768 kBit/s
Качество : Высокий
Добавление ID3-тэга : Нет
Утилита сжатия : C:\Program Files\Exact Audio Copy\FLAC\FLAC.EXE
Дополнительные параметры : -6 -V -T "ARTIST=%a" -T "TITLE=%t" -T "ALBUM=%g" -T "DATE=%y" -T "TRACKNUMBER=%n" -T "GENRE=%m" -T "COMMENT=%e" %s -o %d


TOC извлечённого CD

Трек | Старт | Длительность | Начальный сектор | Конечный сектор
---------------------------------------------------------------------
1 | 0:00.00 | 3:41.03 | 0 | 16577
2 | 3:41.03 | 1:21.50 | 16578 | 22702
3 | 5:02.53 | 3:47.05 | 22703 | 39732
4 | 8:49.58 | 2:06.73 | 39733 | 49255
5 | 10:56.56 | 3:20.08 | 49256 | 64263
6 | 14:16.64 | 3:24.42 | 64264 | 79605
7 | 17:41.31 | 1:47.11 | 79606 | 87641
8 | 19:28.42 | 2:33.52 | 87642 | 99168
9 | 22:02.19 | 3:49.29 | 99169 | 116372
10 | 25:51.48 | 1:41.21 | 116373 | 123968
11 | 27:32.69 | 2:14.46 | 123969 | 134064
12 | 29:47.40 | 3:55.35 | 134065 | 151724
13 | 33:43.00 | 2:42.44 | 151725 | 163918
14 | 36:25.44 | 3:08.12 | 163919 | 178030
15 | 39:33.56 | 2:13.31 | 178031 | 188036
16 | 41:47.12 | 2:44.29 | 188037 | 200365
17 | 44:31.41 | 2:21.14 | 200366 | 210954
18 | 46:52.55 | 3:31.34 | 210955 | 226813
19 | 50:24.14 | 4:05.24 | 226814 | 245212
20 | 54:29.38 | 2:25.12 | 245213 | 256099
21 | 56:54.50 | 3:51.59 | 256100 | 273483


Характеристики диапазона извлечения и сообщения об ошибках

Выбранный диапазон

Имя файла D:\Lossless Music\Cryptic Slaughter - Money Talks (Reissue).wav

Пиковый уровень 100.0 %
Качество диапазона 100.0 %
CRC копии 592B7793
Копирование... OK

Ошибок не произошло



Конец отчёта


Megaupload


Top
 Profile  
 
 
PostPosted: 17 Sep 2009 
Хиппей (support team)
User avatar
Joined: 30 Jul 2007
Posts: 119845
Lоcаtion: Киев (Kyiv, UA)
Age: 47
Name: Andrey
Ура, мой любимый альбом :true:
Спасибо! :thanx:

_________________


Top
 Profile E-mail  
 
 
PostPosted: 17 Sep 2009 
Генеральный thrasher
User avatar
Joined: 03 Oct 2008
Posts: 3751
Lоcаtion: Ханты-Мансийский АО
Age: 45
Name: Сергей
Scatterbrain wrote:
Ура, мой любимый альбом :true:
Спасибо! :thanx:


Правда что-ли?Андрей,а "Speak Your Peace"(1990) залить или не надо?


Top
 Profile  
 
 
PostPosted: 17 Sep 2009 
Работнечег
User avatar
Joined: 28 Aug 2007
Posts: 6363
Lоcаtion: г. Москва
Age: 31
Name: Дима
Спасибо, буду просвещаться! :true:


Top
 Profile E-mail  
 
 
PostPosted: 17 Sep 2009 
Хиппей (support team)
User avatar
Joined: 30 Jul 2007
Posts: 119845
Lоcаtion: Киев (Kyiv, UA)
Age: 47
Name: Andrey
thorbeorn wrote:
залить

Ага, конечно :true:

_________________


Top
 Profile E-mail  
 
 
PostPosted: 18 Mar 2010 
Thrasher
User avatar
Joined: 07 Oct 2007
Posts: 2782
Lоcаtion: Russia, Moscow
Age: 37
Name: Drunk & Evil
:thanx: Благодарю!

_________________
ВОДКА, БАБЫ И БЛЮЗ / 40° till death... :bodun:
One time we saw some hookers, but when we got closer, we realised it was Mötley Crüe. ©


Top
 Profile  
 
Display posts from previous:  Sort by  
Post new topic Reply to topic  [ 6 posts ] 

All times are UTC + 3 hours


Who is online

Users browsing this forum: No registered users and 1 guest


You cannot post new topics in this forum
You cannot reply to topics in this forum
You cannot edit your posts in this forum
You cannot delete your posts in this forum
You cannot post attachments in this forum

Search for:
Яндекс.Метрика
Powered by phpBB © 2000, 2002, 2005, 2007 phpBB Group