\m/ 80's metal \m/

Информационно-аналитический форум "80 см пыли" (In Search We Trust) "У нас никто никуда не спешит"
Me For You - http://me-4u.com
It is currently 24 Jan 2021

All times are UTC + 3 hours

Spoiler
Chat - temporary registration for foreign users (please leave your application here)







Post new topic Reply to topic  [ 5 posts ] 
Author Message
 
PostPosted: 14 Sep 2009 
Генеральный thrasher
User avatar
Joined: 03 Oct 2008
Posts: 3751
Lоcаtion: Ханты-Мансийский АО
Age: 45
Name: Сергей
Image

Year:1986 (Re-Issue 2003)
Label:Relapse Records
Style:Thrash/Crossover
Country: U.S.A.
Format:Flac+Cue+Log
Size:421Mb

Line-Up:
Bill Crooks : Vocals
Les Evans : Guitar
Rob Nicholson : Bass, Backing Vocals
Scott Peterson : Drums

Image

Tracklist:
1 M.A.D. 1:25
2 Little World 1:39
3 Sudden Death 1:45
4 Lowlife 2:32
5 Rage To Kill 1:49
6 Rest In Pain 3:04
7 Nuclear Future 4:17
8 State Of Control 1:50
9 Hypocrite 3:02
10 War To The Knife 1:54
11 Nation Of Hate 1:25
12 Black And White 2:07
13 Reich Of Torture 2:56
14 Convicted 1:34
Life In A Grave Demo 05/1985:
15 Flesh Of The Wench (demo) 2:36
16 Necessity Supreme (demo) 2:45
17 Life In Grave (demo) 1:36
18 War To The Knife (demo) 2:17
19 Rest In Pain (demo) 3:34
Live In Houston 06.07.1988:
20 Set Your Own Pace (live) 2:20
21 Positively (live) 2:29
22 Black And White (live) 2:20
23 Lowlife (live) 2:58

Cue
REM GENRE "Thrash Metal"
REM DATE 2003
REM DISCID 530CB717
REM COMMENT "ExactAudioCopy v0.99pb4"
PERFORMER "Cryptic Slaughter"
TITLE "Convicted (re-issue)"
FILE "Cryptic Slaughter - Convicted (re-issue).flac" WAVE
TRACK 01 AUDIO
TITLE "M.A.D."
PERFORMER "Cryptic Slaughter"
INDEX 01 00:00:00
TRACK 02 AUDIO
TITLE "Little World"
PERFORMER "Cryptic Slaughter"
INDEX 00 01:24:54
INDEX 01 01:24:55
TRACK 03 AUDIO
TITLE "Sudden Death"
PERFORMER "Cryptic Slaughter"
INDEX 00 03:03:61
INDEX 01 03:03:62
TRACK 04 AUDIO
TITLE "Lowlife"
PERFORMER "Cryptic Slaughter"
INDEX 00 04:48:38
INDEX 01 04:48:39
TRACK 05 AUDIO
TITLE "Rage To Kill"
PERFORMER "Cryptic Slaughter"
INDEX 00 07:20:59
INDEX 01 07:20:60
TRACK 06 AUDIO
TITLE "Rest In Pain"
PERFORMER "Cryptic Slaughter"
INDEX 00 09:10:10
INDEX 01 09:10:11
TRACK 07 AUDIO
TITLE "Nuclear Future"
PERFORMER "Cryptic Slaughter"
INDEX 00 12:13:70
INDEX 01 12:13:71
TRACK 08 AUDIO
TITLE "State Of Control"
PERFORMER "Cryptic Slaughter"
INDEX 00 16:30:59
INDEX 01 16:30:60
TRACK 09 AUDIO
TITLE "Hypocrite"
PERFORMER "Cryptic Slaughter"
INDEX 01 18:20:38
TRACK 10 AUDIO
TITLE "War To The Knife"
PERFORMER "Cryptic Slaughter"
INDEX 01 21:22:41
TRACK 11 AUDIO
TITLE "Nation Of Hate"
PERFORMER "Cryptic Slaughter"
INDEX 00 23:16:56
INDEX 01 23:16:57
TRACK 12 AUDIO
TITLE "Black And White"
PERFORMER "Cryptic Slaughter"
INDEX 00 24:41:41
INDEX 01 24:41:42
TRACK 13 AUDIO
TITLE "Reich Of Torture"
PERFORMER "Cryptic Slaughter"
INDEX 00 26:48:44
INDEX 01 26:48:45
TRACK 14 AUDIO
TITLE "Convicted"
PERFORMER "Cryptic Slaughter"
INDEX 00 29:44:42
INDEX 01 29:44:43
TRACK 15 AUDIO
TITLE "Flesh Of The Wench (demo)"
PERFORMER "Cryptic Slaughter"
INDEX 01 31:18:22
TRACK 16 AUDIO
TITLE "Necessity Supreme (demo)"
PERFORMER "Cryptic Slaughter"
INDEX 01 33:54:47
TRACK 17 AUDIO
TITLE "Life In Grave (demo)"
PERFORMER "Cryptic Slaughter"
INDEX 00 36:39:56
INDEX 01 36:39:57
TRACK 18 AUDIO
TITLE "War To The Knife (demo)"
PERFORMER "Cryptic Slaughter"
INDEX 00 38:15:62
INDEX 01 38:15:63
TRACK 19 AUDIO
TITLE "Rest In Pain (demo)"
PERFORMER "Cryptic Slaughter"
INDEX 00 40:33:20
INDEX 01 40:33:21
TRACK 20 AUDIO
TITLE "Set Your Own Pace (live)"
PERFORMER "Cryptic Slaughter"
INDEX 00 44:07:27
INDEX 01 44:07:28
TRACK 21 AUDIO
TITLE "Positively (live)"
PERFORMER "Cryptic Slaughter"
INDEX 00 46:27:22
INDEX 01 46:27:23
TRACK 22 AUDIO
TITLE "Black And White (live)"
PERFORMER "Cryptic Slaughter"
INDEX 00 48:56:48
INDEX 01 48:56:49
TRACK 23 AUDIO
TITLE "Lowlife (live)"
PERFORMER "Cryptic Slaughter"
INDEX 01 51:16:60


Log
Exact Audio Copy V0.99 prebeta 4 from 23. January 2008

Отчёт EAC об извлечении, выполненном 14. сентября 2009, 12:03

Cryptic Slaughter / Convicted (re-issue)

Дисковод: ATAPI DVD A DH20A4P Adapter: 0 ID: 1

Режим чтения : Достоверность
Использование точного потока : Да
Отключение кэша аудио : Да
Использование указателей C2 : Нет

Коррекция смещения при чтении : 6
Способность читать области Lead-in и Lead-out : Нет
Заполнение пропущенных сэмплов тишиной : Да
Удаление блоков с тишиной в начале и конце : Нет
При вычислениях CRC использовались нулевые сэмплы : Нет
Интерфейс : Встроенный Win32-интерфейс для Win NT/2000

Выходной формат : Пользовательский кодировщик
Выбранный битрейт : 768 kBit/s
Качество : Высокий
Добавление ID3-тэга : Нет
Утилита сжатия : C:\Program Files\Exact Audio Copy\FLAC\FLAC.EXE
Дополнительные параметры : -6 -V -T "ARTIST=%a" -T "TITLE=%t" -T "ALBUM=%g" -T "DATE=%y" -T "TRACKNUMBER=%n" -T "GENRE=%m" -T "COMMENT=%e" %s -o %d


TOC извлечённого CD

Трек | Старт | Длительность | Начальный сектор | Конечный сектор
---------------------------------------------------------------------
1 | 0:00.00 | 1:24.55 | 0 | 6354
2 | 1:24.55 | 1:39.07 | 6355 | 13786
3 | 3:03.62 | 1:44.52 | 13787 | 21638
4 | 4:48.39 | 2:32.21 | 21639 | 33059
5 | 7:20.60 | 1:49.26 | 33060 | 41260
6 | 9:10.11 | 3:03.60 | 41261 | 55045
7 | 12:13.71 | 4:16.64 | 55046 | 74309
8 | 16:30.60 | 1:49.53 | 74310 | 82537
9 | 18:20.38 | 3:02.03 | 82538 | 96190
10 | 21:22.41 | 1:54.16 | 96191 | 104756
11 | 23:16.57 | 1:24.60 | 104757 | 111116
12 | 24:41.42 | 2:07.03 | 111117 | 120644
13 | 26:48.45 | 2:55.73 | 120645 | 133842
14 | 29:44.43 | 1:33.54 | 133843 | 140871
15 | 31:18.22 | 2:36.25 | 140872 | 152596
16 | 33:54.47 | 2:45.10 | 152597 | 164981
17 | 36:39.57 | 1:36.06 | 164982 | 172187
18 | 38:15.63 | 2:17.33 | 172188 | 182495
19 | 40:33.21 | 3:34.07 | 182496 | 198552
20 | 44:07.28 | 2:19.70 | 198553 | 209047
21 | 46:27.23 | 2:29.26 | 209048 | 220248
22 | 48:56.49 | 2:20.11 | 220249 | 230759
23 | 51:16.60 | 2:59.12 | 230760 | 244196


Характеристики диапазона извлечения и сообщения об ошибках

Выбранный диапазон

Имя файла D:\Lossless Music\Cryptic Slaughter - Convicted (re-issue).wav

Пиковый уровень 100.0 %
Качество диапазона 100.0 %
CRC копии 7A760222
Копирование... OK

Ошибок не произошло


Конец отчёта


Part 1 - http://ifolder.ru/13994966
Part 2 - http://ifolder.ru/13996012
Part 3 - http://ifolder.ru/13996780
Part 4 - http://ifolder.ru/13997283
Part 5 - http://ifolder.ru/13997999


Top
 Profile  
 
 
PostPosted: 14 Sep 2009 
Пионэръ
Joined: 07 Apr 2009
Posts: 31
Lоcаtion: Deutschland
Age: 57
Name: Eric
bolschoje spasibo!!!


Top
 Profile  
 
 
PostPosted: 14 Sep 2009 
Хиппей (support team)
User avatar
Joined: 30 Jul 2007
Posts: 119887
Lоcаtion: Киев (Kyiv, UA)
Age: 47
Name: Andrey
:true:

_________________


Top
 Profile E-mail  
 
 
PostPosted: 14 Sep 2009 
хард н хэвщик (support team)
User avatar
Joined: 02 Jun 2008
Posts: 16881
Lоcаtion: Н.Новгород
Age: 33
Name: Артем
второй справа это Шатунов? :oops:


Top
 Profile  
 
 
PostPosted: 14 Sep 2009 
Хиппей (support team)
User avatar
Joined: 30 Jul 2007
Posts: 119887
Lоcаtion: Киев (Kyiv, UA)
Age: 47
Name: Andrey
Ага, а первый справа Михайличенко :true:

Image

_________________


Top
 Profile E-mail  
 
Display posts from previous:  Sort by  
Post new topic Reply to topic  [ 5 posts ] 

All times are UTC + 3 hours


Who is online

Users browsing this forum: No registered users and 1 guest


You cannot post new topics in this forum
You cannot reply to topics in this forum
You cannot edit your posts in this forum
You cannot delete your posts in this forum
You cannot post attachments in this forum

Search for:
Яндекс.Метрика
cron
Powered by phpBB © 2000, 2002, 2005, 2007 phpBB Group