\m/ 80's metal \m/

Информационно-аналитический форум "80 см пыли" (In Search We Trust) "У нас никто никуда не спешит"
Me For You - http://me-4u.com
It is currently 29 Nov 2021

All times are UTC + 3 hours

Spoiler
Chat - temporary registration for foreign users (please leave your application here)







Post new topic Reply to topic  [ 7 posts ] 
Author Message
 
PostPosted: 11 Jul 2009 
Персональный статус
User avatar
Joined: 02 Jul 2009
Posts: 417
Name: Александр
Ужас как хочется .
Crash The System " The Crowning "

Category: Hard Rock

Year: 2009

Label: Frontiers Records


Personnel
Daniel Flores All Instruments, Backing Vocals
Soren Kronqvist Keyboards, Bass, Guitars

Goran Edman Lead & Backing Vocals
Mats Leven Lead & Backing Vocals
Thomas Vikstrom Lead & Backing Vocals
Bjorn Jansson Lead & Backing Vocals
Johan Niemann Guitars
Daniel Palmqvist Guitars
Manuel Lewys Guitars
Andreas Lindahl Keyboards
Angelica Rylin Backing Vocals

Tracks
1. Fight Fire With Fire
2. All Because Of You
3. I Still Believe In Love
4. Love Is In Your Eyes
5. Take A Chance
6. Enough Of Your Lovin’
7. Mysterious
8. Angel Of My Heart
9. Rolling Stone
10. Don’t Tell Me No Lies
11. Broken Glass
12. Higher And Higher
13. Without Chances


Всё попадается маленький битрейд . Может кто знает где есть в 320 . Собрались
и Эдман , и Левен , Викстром - такие вокалистища . Очень хочется .


Top
 Profile E-mail  
 
 
PostPosted: 11 Jul 2009 
Хиппей (support team)
User avatar
Joined: 30 Jul 2007
Posts: 123152
Lоcаtion: Киев (Kyiv, UA)
Age: 48
Name: Andrey
Качаю... :bore:

_________________


Top
 Profile E-mail  
 
 
PostPosted: 11 Jul 2009 
Хиппей (support team)
User avatar
Joined: 30 Jul 2007
Posts: 123152
Lоcаtion: Киев (Kyiv, UA)
Age: 48
Name: Andrey
Deris wrote:
Может кто знает где есть в 320

Опа. Тогда не качаю :fingal:
Есть только в 192 и вбр-256...

_________________


Top
 Profile E-mail  
 
 
PostPosted: 11 Jul 2009 
Хиппей (support team)
User avatar
Joined: 30 Jul 2007
Posts: 123152
Lоcаtion: Киев (Kyiv, UA)
Age: 48
Name: Andrey
Скачал, прослушал. Звёздные сопли мелодик-паверные. Не моё :pardon:

_________________


Top
 Profile E-mail  
 
 
PostPosted: 27 Oct 2010 
Rara avis
User avatar
Joined: 27 Jan 2009
Posts: 5918
Name: .
http://rutracker.org/forum/viewtopic.php?t=2006318 (320) или http://mp3passion.net/2009/07/11/
http://rutracker.org/forum/viewtopic.php?t=2353644 :losik:
Image


Top
 Profile E-mail  
 
 
PostPosted: 20 Apr 2012 
Хиппей (support team)
User avatar
Joined: 30 Jul 2007
Posts: 123152
Lоcаtion: Киев (Kyiv, UA)
Age: 48
Name: Andrey
Даш, первая тема уже удалена, а во второй лось с косяком =)

Днём прослушаю, авось кому-там чего не так послышалось...
Запрос пока не снимается.

_________________


Top
 Profile E-mail  
 
 
PostPosted: 20 Apr 2012 
Хиппей (support team)
User avatar
Joined: 30 Jul 2007
Posts: 123152
Lоcаtion: Киев (Kyiv, UA)
Age: 48
Name: Andrey
Crash The System - 2009 - The Crowning [ape]

ImageImage
Image

Speedy l Narod

log
Exact Audio Copy V0.99 prebeta 5 from 4. May 2009

Отчёт EAC об извлечении, выполненном 24. октября 2009, 22:17

Crash The System / The Crowning

Дисковод: PLEXTOR DVDR PX-860A Adapter: 0 ID: 0

Режим чтения : Достоверность
Использование точного потока : Да
Отключение кэша аудио : Да
Использование указателей C2 : Нет

Коррекция смещения при чтении : 96
Способность читать области Lead-in и Lead-out : Нет
Заполнение пропущенных сэмплов тишиной : Да
Удаление блоков с тишиной в начале и конце : Нет
При вычислениях CRC использовались нулевые сэмплы : Да
Интерфейс : Установленный внешний ASPI-интерфейс

Выходной формат : Monkey's Audio (без потерь)
Выбранный битрейт : Normal Lossless Compression
Качество : Высокий
Добавление ID3-тэга : Да
Утилита сжатия : C:\Program Files\Monkey's Audio\MAC.exe


TOC извлечённого CD

Трек | Старт | Длительность | Начальный сектор | Конечный сектор
---------------------------------------------------------------------
1 | 0:00.00 | 3:12.74 | 0 | 14473
2 | 3:12.74 | 3:05.01 | 14474 | 28349
3 | 6:18.00 | 3:54.32 | 28350 | 45931
4 | 10:12.32 | 3:00.01 | 45932 | 59432
5 | 13:12.33 | 3:20.00 | 59433 | 74432
6 | 16:32.33 | 4:04.01 | 74433 | 92733
7 | 20:36.34 | 3:06.00 | 92734 | 106683
8 | 23:42.34 | 3:07.00 | 106684 | 120708
9 | 26:49.34 | 3:40.73 | 120709 | 137281
10 | 30:30.32 | 3:21.00 | 137282 | 152356
11 | 33:51.32 | 3:22.74 | 152357 | 167580
12 | 37:14.31 | 3:03.00 | 167581 | 181305
13 | 40:17.31 | 4:34.00 | 181306 | 201855


Характеристики диапазона извлечения и сообщения об ошибках

Выбранный диапазон

Имя файла G:\MUSIC\Crash The System - The Crowning.wav

Пиковый уровень 100.0 %
Качество диапазона 99.9 %
CRC теста 499B0F5D
CRC копии 499B0F5D
Копирование... OK

Ошибок не произошло


AccurateRip: сводка

Трек 1 нет в базе данных
Трек 2 нет в базе данных
Трек 3 нет в базе данных
Трек 4 нет в базе данных
Трек 5 нет в базе данных
Трек 6 нет в базе данных
Трек 7 нет в базе данных
Трек 8 нет в базе данных
Трек 9 нет в базе данных
Трек 10 нет в базе данных
Трек 11 нет в базе данных
Трек 12 нет в базе данных
Трек 13 нет в базе данных

Ни одного трека нет в базе AccurateRip

Конец отчёта

cue
REM GENRE "Hard Rock"
REM DATE 2009
REM DISCID A50A830D
REM COMMENT "ExactAudioCopy v0.99pb5"
PERFORMER "Crash The System"
TITLE "The Crowning"
FILE "Crash The System - The Crowning.ape" WAVE
TRACK 01 AUDIO
TITLE "Fight Fire With Fire"
PERFORMER "Crash The System"
FLAGS DCP
INDEX 01 00:00:00
TRACK 02 AUDIO
TITLE "All Because Of You"
PERFORMER "Crash The System"
FLAGS DCP
INDEX 01 03:12:74
TRACK 03 AUDIO
TITLE "I Still Believe In Love"
PERFORMER "Crash The System"
FLAGS DCP
INDEX 01 06:18:00
TRACK 04 AUDIO
TITLE "Love Is In Your Eyes"
PERFORMER "Crash The System"
FLAGS DCP
INDEX 01 10:12:32
TRACK 05 AUDIO
TITLE "Take A Chance"
PERFORMER "Crash The System"
FLAGS DCP
INDEX 01 13:12:33
TRACK 06 AUDIO
TITLE "Enough Of Your Lovin'"
PERFORMER "Crash The System"
FLAGS DCP
INDEX 01 16:32:33
TRACK 07 AUDIO
TITLE "Mysterious"
PERFORMER "Crash The System"
FLAGS DCP
INDEX 01 20:36:34
TRACK 08 AUDIO
TITLE "Angel Of My Heart"
PERFORMER "Crash The System"
FLAGS DCP
INDEX 01 23:42:34
TRACK 09 AUDIO
TITLE "Rolling Stone"
PERFORMER "Crash The System"
FLAGS DCP
INDEX 01 26:49:34
TRACK 10 AUDIO
TITLE "Don't Tell Me No Lies"
PERFORMER "Crash The System"
FLAGS DCP
INDEX 01 30:30:32
TRACK 11 AUDIO
TITLE "Broken Glass"
PERFORMER "Crash The System"
FLAGS DCP
INDEX 01 33:51:32
TRACK 12 AUDIO
TITLE "Higher And Higher"
PERFORMER "Crash The System"
FLAGS DCP
INDEX 01 37:14:31
TRACK 13 AUDIO
TITLE "Without Chances"
PERFORMER "Crash The System"
FLAGS DCP
INDEX 01 40:17:31

spectrum
Image



Так, ну это ни разу не Hard Rock, а Melodic Metal с некоторые элементами прог-метала.
Альбом понравился :meloman:

7/10

зы. При первом прослушивании косяков обнаружено не было.

_________________


Top
 Profile E-mail  
 
Display posts from previous:  Sort by  
Post new topic Reply to topic  [ 7 posts ] 

All times are UTC + 3 hours


Who is online

Users browsing this forum: No registered users and 1 guest


You cannot post new topics in this forum
You cannot reply to topics in this forum
You cannot edit your posts in this forum
You cannot delete your posts in this forum

Search for:
Яндекс.Метрика
Powered by phpBB © 2000, 2002, 2005, 2007 phpBB Group