\m/ 80's metal \m/

Информационно-аналитический форум "80 см пыли" (In Search We Trust) "У нас никто никуда не спешит"
Me For You - http://me-4u.com
It is currently 17 Jan 2021

All times are UTC + 3 hours

Spoiler
Chat - temporary registration for foreign users (please leave your application here)







Post new topic Reply to topic  [ 38 posts ]  Go to page 1, 2  Next
Author Message
 
PostPosted: 13 Apr 2009 
Metal Hammer collector
User avatar
Joined: 14 Jan 2009
Posts: 1418
Lоcаtion: Крым. Россия
Age: 50
Name: Сергей
Calhoun Conquer - Lost in Oneself (1989)

Image
Tracklist:

1. Disgust and Hate
2. Fuckhead
3. You Mean Nothing
4. Torturer
5. Portals of Delirium
6. Psycho Trap
7. Nothing (Has Killed Itself)
8. Outermost Consequences
9. Worlds in Collision
10. Diane
Genre: Progressive Thrash Metal

http://rapidshare.com/files/201554423/C ... er_thy.rar (192)
Ищу в 320

_________________
Heavy Metal


Top
 Profile  
 
 
PostPosted: 14 Apr 2009 
Доктор энтомологии
User avatar
Joined: 22 Jan 2009
Posts: 10370
Lоcаtion: Даугавпилс
Age: 45
Name: Алексей
:thanx: давно мечтал


Top
 Profile  
 
 
PostPosted: 14 Apr 2009 
Хиппей (support team)
User avatar
Joined: 30 Jul 2007
Posts: 119777
Lоcаtion: Киев (Kyiv, UA)
Age: 47
Name: Andrey
rocks555 wrote:
Ищу в 320

:vic:


Top
 Profile E-mail  
 
 
PostPosted: 15 Apr 2009 
Прокъмитолист
User avatar
Joined: 12 Aug 2007
Posts: 6784
Lоcаtion: Санктъ-Петербуркъ
Age: 53
Name: Олекъ
ищу лося :zayaz:

_________________
прокъметол - это музыко, от которово есть прок (ы)


Top
 Profile  
 
 
PostPosted: 07 May 2009 
Пионэръ
User avatar
Joined: 01 Feb 2009
Posts: 44
Lоcаtion: UA
Age: 32
Name: .
Альбом один из лучших, уникальнейших и атмосфернейших в своем жанре. Кто бы лосика не хотел))

_________________
We're pain, we're steel, a plot of knives, we're Transmaniacon MC.


Top
 Profile  
 
 
PostPosted: 08 Dec 2011 
Rara avis
User avatar
Joined: 27 Jan 2009
Posts: 5791
Name: .
:losik: http://rutracker.org/forum/viewtopic.php?t=3444380


Top
 Profile E-mail  
 
 
PostPosted: 08 Dec 2011 
Хиппей (support team)
User avatar
Joined: 30 Jul 2007
Posts: 119777
Lоcаtion: Киев (Kyiv, UA)
Age: 47
Name: Andrey
:dance: Позже перелью :thanx:

_________________


Top
 Profile E-mail  
 
 
PostPosted: 08 Dec 2011 
Прокъмитолист
User avatar
Joined: 12 Aug 2007
Posts: 6784
Lоcаtion: Санктъ-Петербуркъ
Age: 53
Name: Олекъ
Scatterbrain wrote:
Позже перелью

бьiстро давай (с) :true:

_________________
прокъметол - это музыко, от которово есть прок (ы)


Top
 Profile  
 
 
PostPosted: 13 Dec 2011 
Хиппей (support team)
User avatar
Joined: 30 Jul 2007
Posts: 119777
Lоcаtion: Киев (Kyiv, UA)
Age: 47
Name: Andrey
О, кстати, совсем забыл. Щас сделаю :crazy:

_________________


Top
 Profile E-mail  
 
 
PostPosted: 13 Dec 2011 
Хиппей (support team)
User avatar
Joined: 30 Jul 2007
Posts: 119777
Lоcаtion: Киев (Kyiv, UA)
Age: 47
Name: Andrey
Calhoun Conquer - 1987 - ...And Now You're Gone (EP) [flac] - vinyl rip

Attachment:
front.jpg
front.jpg [ 141.57 KiB | Viewed 1451 times ]


Line-up:

Stefan Gerling - Bass
Geri Christian Gerling - Vocals, Percussion

    A1. Pathological Proportions - 02:47
    A2. No Parallel With Eden - 03:09
    B1. Outermost Consequences - 06:16
    B2. Diane - 05:45

    TPT: 12:49

Спасибо за рип Александру paranthropus :thanx:

MultiUp l Narod

cue
PERFORMER "Calhoun Conquer"
TITLE "...And Now You're Gone"
FILE "Calhoun Conquer - ...And Now You're Gone - 1987 [EP] [vynil rip].flac" WAVE
TRACK 01 AUDIO
TITLE "Pathological Proportions"
PERFORMER "Calhoun Conquer"
INDEX 01 00:00:00
TRACK 02 AUDIO
TITLE "No Parallel With Eden"
PERFORMER "Calhoun Conquer"
INDEX 01 02:56:00
TRACK 03 AUDIO
TITLE "Outermost Consequences"
PERFORMER "Calhoun Conquer"
INDEX 01 06:13:00
TRACK 04 AUDIO
TITLE "Diane (Husker Du cover)"
PERFORMER "Calhoun Conquer"
INDEX 01 12:49:00


spectrum
Attachment:
spectrum.jpg
spectrum.jpg [ 315.27 KiB | Viewed 211 times ]


phpBB [youtube]

_________________


Top
 Profile E-mail  
 
 
PostPosted: 13 Dec 2011 
Прокъмитолист
User avatar
Joined: 12 Aug 2007
Posts: 6784
Lоcаtion: Санктъ-Петербуркъ
Age: 53
Name: Олекъ
спасибо за заготовочку (ну и Сане, конечно, за рип) :thanx: :true:

_________________
прокъметол - это музыко, от которово есть прок (ы)


Top
 Profile  
 
 
PostPosted: 14 Dec 2011 
Прокъмитолист
User avatar
Joined: 12 Aug 2007
Posts: 6784
Lоcаtion: Санктъ-Петербуркъ
Age: 53
Name: Олекъ
Scatterbrain wrote:
Заготовка...

тьфу ты. это ж не альбом :dash:
а когда будет заготовка альбома? :oops:

_________________
прокъметол - это музыко, от которово есть прок (ы)


Top
 Profile  
 
 
PostPosted: 14 Dec 2011 
Хиппей (support team)
User avatar
Joined: 30 Jul 2007
Posts: 119777
Lоcаtion: Киев (Kyiv, UA)
Age: 47
Name: Andrey
spiralarch wrote:
а когда будет заготовка альбома?

А, я его еще не качал. Щас попробую =)

_________________


Top
 Profile E-mail  
 
 
PostPosted: 15 Dec 2011 
Хиппей (support team)
User avatar
Joined: 30 Jul 2007
Posts: 119777
Lоcаtion: Киев (Kyiv, UA)
Age: 47
Name: Andrey
Calhoun Conquer - 1989 - Lost in Oneself [flac] - vinyl rip

Attachment:
front.jpg
front.jpg [ 121.11 KiB | Viewed 1453 times ]


Line-up:

Geri Christian Gerling - Vocals
Christian Muzik - Guitar, Percussion, Drum programming
Stefan Gerling - Bass, Percussion, Drum programming

    1. Disgust and Hate - 04:16
    2. Fuckhead - 00:47
    3. You Mean Nothing - 04:27
    4. Torturer - 05:53
    5. Portals of Delirium - 02:12
    6. Psycho Trap 03:03
    7. Nothing (Has Killed Itself) - 03:48
    8. Outermost Consequences - 04:53
    9. Worlds in Collision - 05:09

    TPT: 29:03

Спасибо за рип Александру paranthropus :thanx:

Посьба обратить внимание, что в оригинале на альбоме было 9 композиций :umnik:

MultiUp l Narod

cue
PERFORMER "Calhoun Conquer"
TITLE "Lost in Oneself"
FILE "Calhoun Conquer - Lost in Oneself - 1989 [vynil rip].flac" WAVE
TRACK 01 AUDIO
TITLE "Disgust and Hate"
PERFORMER "Calhoun Conquer"
INDEX 01 00:00:00
TRACK 02 AUDIO
TITLE "Fuckhead"
PERFORMER "Calhoun Conquer"
INDEX 01 04:13:00
TRACK 03 AUDIO
TITLE "You Mean Nothing"
PERFORMER "Calhoun Conquer"
INDEX 01 05:00:00
TRACK 04 AUDIO
TITLE "Torturer"
PERFORMER "Calhoun Conquer"
INDEX 01 09:24:00
TRACK 05 AUDIO
TITLE "Portals of Delirium"
PERFORMER "Calhoun Conquer"
INDEX 01 15:12:00
TRACK 06 AUDIO
TITLE "Psycho Trap"
PERFORMER "Calhoun Conquer"
INDEX 01 17:26:00
TRACK 07 AUDIO
TITLE "Nothing (Has Killed Itself)"
PERFORMER "Calhoun Conquer"
INDEX 01 20:28:00
TRACK 08 AUDIO
TITLE "Outermost Consequences"
PERFORMER "Calhoun Conquer"
INDEX 01 24:14:00
TRACK 09 AUDIO
TITLE "Worlds in Collision"
PERFORMER "Calhoun Conquer"
INDEX 01 29:03:00


spectrum
Attachment:
spectrum.jpg
spectrum.jpg [ 325.37 KiB | Viewed 210 times ]

_________________


Top
 Profile E-mail  
 
 
PostPosted: 15 Dec 2011 
Прокъмитолист
User avatar
Joined: 12 Aug 2007
Posts: 6784
Lоcаtion: Санктъ-Петербуркъ
Age: 53
Name: Олекъ
:thanx: :true:

_________________
прокъметол - это музыко, от которово есть прок (ы)


Top
 Profile  
 
 
PostPosted: 15 Dec 2011 
Труъ
User avatar
Joined: 14 Jul 2009
Posts: 158
Lоcаtion: Hell Is Here
Age: 50
Name: Adriano
Many Thanx ! :true:


Top
 Profile E-mail  
 
 
PostPosted: 15 Dec 2011 
Хиппей (support team)
User avatar
Joined: 30 Jul 2007
Posts: 119777
Lоcаtion: Киев (Kyiv, UA)
Age: 47
Name: Andrey
О, альбом ведь переиздавался и на диске... http://www.thirdav.com/hd_discog/img/calhoun.html :scratch:
Это так, для информации :pardon:

http://my_affectus.moole.ru/348959-calh ... eself.html

_________________


Top
 Profile E-mail  
 
 
PostPosted: 15 Dec 2011 
Прокъмитолист
User avatar
Joined: 12 Aug 2007
Posts: 6784
Lоcаtion: Санктъ-Петербуркъ
Age: 53
Name: Олекъ
тоже чисто для информации: альбом НИКОГДА не переиздавался. оригинальный сидюк можно купить тыщ за 5 рублей :pardon:
http://www.ebay.com/itm/CALHOUN-CONQUER ... 0747546996

_________________
прокъметол - это музыко, от которово есть прок (ы)


Top
 Profile  
 
 
PostPosted: 15 Dec 2011 
Хиппей (support team)
User avatar
Joined: 30 Jul 2007
Posts: 119777
Lоcаtion: Киев (Kyiv, UA)
Age: 47
Name: Andrey
Ээ... неправильно выразился йа. "Издавался альбом и на диске" - так норм? =)
Кстати, Олег, действительно на виниле было на одну композицию меньше?

_________________


Top
 Profile E-mail  
 
 
PostPosted: 15 Dec 2011 
Прокъмитолист
User avatar
Joined: 12 Aug 2007
Posts: 6784
Lоcаtion: Санктъ-Петербуркъ
Age: 53
Name: Олекъ
Scatterbrain wrote:
на виниле было на одну композицию меньше?

это обычная практика того времени. с одной стороны, своего рода способ привлечения интереса к новому формату. а с другой, зачастую дополнительные вещи просто физически было невозможно "впихнуть" на винил из-за присущих ему ограничений, а на цд - сколько угодно.

_________________
прокъметол - это музыко, от которово есть прок (ы)


Top
 Profile  
 
Display posts from previous:  Sort by  
Post new topic Reply to topic  [ 38 posts ]  Go to page 1, 2  Next

All times are UTC + 3 hours


Who is online

Users browsing this forum: No registered users and 2 guests


You cannot post new topics in this forum
You cannot reply to topics in this forum
You cannot edit your posts in this forum
You cannot delete your posts in this forum
You cannot post attachments in this forum

Search for:
Яндекс.Метрика
Powered by phpBB © 2000, 2002, 2005, 2007 phpBB Group