\m/ 80's metal \m/

Информационно-аналитический форум "80 см пыли" (In Search We Trust) "У нас никто никуда не спешит"
Me For You - http://me-4u.com
It is currently 19 Jan 2021

All times are UTC + 3 hours

Spoiler
Chat - temporary registration for foreign users (please leave your application here)







Post new topic Reply to topic  [ 8 posts ] 
Author Message
 
PostPosted: 04 Apr 2009 
труъ антисионист
User avatar
Joined: 01 Aug 2007
Posts: 4544
Lоcаtion: Откуда и большинство из нас
Age: 40
Name: Дядя Вова
Image
Группа: Crashdiet
Альбом: Rest In Sleaze
Год: 2005
Лейбл: Stockholm Records
Стиль: Glam / Sleaze Metal
Страна: Swe
Формат: Lossless
Размер: 288 Mb

***********************************************************************************************

Line Up:

Dave Lepard - vocals
Martin Sweet - Guitar
Peter London - Bass Guitar
Eric Young - drums



Tracks:
01. Knokk 'em down (3:36)
02. Riot in everyone (3:57)
03. Queen obscene/69 shots (3:46)
04. Breakin' the chain (3:02)
05. Needle in your eye (3:48)
06. Tikket (3:33)
07. Out of line (3:43)
08. It's a miracle (3:30)
09. Straight outta hell (2:59)
10. Back on track (3:41)


Quote:
Exact Audio Copy V0.99 prebeta 3 from 28. July 2007

EAC extraction logfile from 4. February 2008, 14:43

Crashdпet / Rest In Sleaze

Used drive : TSSTcorpCD/DVDW SH-S182D Adapter: 1 ID: 1

Read mode : Secure
Utilize accurate stream : Yes
Defeat audio cache : Yes
Make use of C2 pointers : No

Read offset correction : 6
Overread into Lead-In and Lead-Out : No
Fill up missing offset samples with silence : Yes
Delete leading and trailing silent blocks : No
Null samples used in CRC calculations : No
Used interface : Installed external ASPI interface

Used output format : Internal WAV Routines
Sample format : 44.100 Hz; 16 Bit; Stereo


TOC of the extracted CD

Track | Start | Length | Start sector | End sector
---------------------------------------------------------
1 | 0:00.00 | 3:36.19 | 0 | 16218
2 | 3:36.19 | 3:57.17 | 16219 | 34010
3 | 7:33.36 | 3:45.56 | 34011 | 50941
4 | 11:19.17 | 3:01.65 | 50942 | 64581
5 | 14:21.07 | 3:48.06 | 64582 | 81687
6 | 18:09.13 | 3:33.14 | 81688 | 97676
7 | 21:42.27 | 3:42.67 | 97677 | 114393
8 | 25:25.19 | 3:29.66 | 114394 | 130134
9 | 28:55.10 | 2:59.26 | 130135 | 143585
10 | 31:54.36 | 3:40.52 | 143586 | 160137


Range status and errors

Selected range

Filename D:\Cd\To Share\Crashdiet - 2005 - Rest in Sleeze [Eac-Ape] By Sapo Malo\Crashdпet - Rest In Sleaze.wav

Peak level 98.8 %
Range quality 99.9 %
Copy CRC 348EF45A
Copy OK

No errors occurred


AccurateRip summary

Track 1 accurately ripped (confidence 3) [19E5443A]
Track 2 accurately ripped (confidence 3) [7767829E]
Track 3 accurately ripped (confidence 3) [E8E2FC2B]
Track 4 accurately ripped (confidence 3) [099C3B05]
Track 5 accurately ripped (confidence 3) [E83112EF]
Track 6 accurately ripped (confidence 3) [F58A3ECD]
Track 7 accurately ripped (confidence 3) [B1459AEB]
Track 8 accurately ripped (confidence 3) [AB23F97D]
Track 9 accurately ripped (confidence 3) [4208CDD8]
Track 10 accurately ripped (confidence 3) [2822D3DF]

All tracks accurately ripped

End of status report



=========================DOWNLOAD==========================
NarodDisk
<a href="http://narod.ru/disk/7352059000/2005%20Rest%20in%20Sleeze.rar.html">2005 Rest in Sleeze.rar</a><br>

_________________
Image
Image


Last edited by Glot on 22 Apr 2009, edited 1 time in total.

Top
 Profile  
 
 
PostPosted: 04 Apr 2009 
Хиппей (support team)
User avatar
Joined: 30 Jul 2007
Posts: 119809
Lоcаtion: Киев (Kyiv, UA)
Age: 47
Name: Andrey
Хм... :umnik:
Спасибо, Вовка :thanx:


Top
 Profile E-mail  
 
 
PostPosted: 04 Apr 2009 
Alive Again
User avatar
Joined: 17 Dec 2008
Posts: 4750
Lоcаtion: Курск Воронеж Оскол
Age: 46
Name: Дмитрий
Большое спасибо! :thanx:


Top
 Profile E-mail  
 
 
PostPosted: 22 Apr 2009 
Персональный статус
User avatar
Joined: 23 Jan 2008
Posts: 339
Age: 46
Name: Олег
Ух!
Взорвали они мне мозг!


Top
 Profile  
 
 
PostPosted: 22 Apr 2009 
труъ антисионист
User avatar
Joined: 01 Aug 2007
Posts: 4544
Lоcаtion: Откуда и большинство из нас
Age: 40
Name: Дядя Вова
clavir
Согласен, Riot in everyone вообще бомба :true:

_________________
Image
Image


Top
 Profile  
 
 
PostPosted: 22 Apr 2009 
Персональный статус
User avatar
Joined: 12 Aug 2008
Posts: 373
Lоcаtion: Днепр
Age: 55
Name: Геннадий
Отличная вещь.Всем рекомендую. :meloman:

_________________
ROCK N ROLL — не болезнь, а лекарство. Принимаем ежедневно.


Top
 Profile E-mail  
 
 
PostPosted: 22 Apr 2009 
Old Time Rock`n`Roll
User avatar
Joined: 23 Jun 2008
Posts: 3593
Lоcаtion: г.Ульяновск
Age: 42
Name: Константин
вообще-то пишется CrashDiet


Top
 Profile  
 
 
PostPosted: 22 Apr 2009 
труъ антисионист
User avatar
Joined: 01 Aug 2007
Posts: 4544
Lоcаtion: Откуда и большинство из нас
Age: 40
Name: Дядя Вова
oldrocker
Спасибо, название подправил :oops:

_________________
Image
Image


Top
 Profile  
 
Display posts from previous:  Sort by  
Post new topic Reply to topic  [ 8 posts ] 

All times are UTC + 3 hours


Who is online

Users browsing this forum: No registered users and 3 guests


You cannot post new topics in this forum
You cannot reply to topics in this forum
You cannot edit your posts in this forum
You cannot delete your posts in this forum
You cannot post attachments in this forum

Search for:
Яндекс.Метрика
Powered by phpBB © 2000, 2002, 2005, 2007 phpBB Group