\m/ 80's metal \m/

Информационно-аналитический форум "80 см пыли" (In Search We Trust) "У нас никто никуда не спешит"
Me For You - http://me-4u.com
It is currently 06 Dec 2021

All times are UTC + 3 hours

Spoiler
Chat - temporary registration for foreign users (please leave your application here)







Post new topic Reply to topic  [ 9 posts ] 
Author Message
 
PostPosted: 07 Jan 2009 
Персональный статус
User avatar
Joined: 24 Aug 2007
Posts: 303
Lоcаtion: Иваново
Age: 48
Name: Вован
Дядьки, может у кого имеется сей альбом в lossless?

CHINA - CHINA • 1988 (Swizerland)

Members
Claudio Matteo -Guitar
Freddy Laurence - Guitar
John Dommen - Drums
Marc Lynn - Bass
Math Shiverow - Vocals

1. Shout It Out
2. Back To You
3. The Fight Is On
4. Wild Jealousy
5. Rock City
6. Hot Lovin' Night
7. Living On The Stage
8. I Need Your Love
9. When Passion Burns
10. Staying Alive


Top
 Profile E-mail  
 
 
PostPosted: 11 Jan 2009 
хард н хэвщик (support team)
User avatar
Joined: 02 Jun 2008
Posts: 16881
Lоcаtion: Н.Новгород
Age: 34
Name: Артем
на METAL MADNESS TEAM видел, в самых верхних топиках.
дружишь с ослом, - то запрягай и качай )


Top
 Profile  
 
 
PostPosted: 11 Jan 2009 
Персональный статус
User avatar
Joined: 24 Aug 2007
Posts: 303
Lоcаtion: Иваново
Age: 48
Name: Вован
McKagan, уважаемый, а не мог-бы ты указать более точное нахождение данного релиза на ММТ, а то я там его искал и не нашёл :oops:

Извиняюсь, уже нашёл :oops: :oops:


Top
 Profile E-mail  
 
 
PostPosted: 11 Jan 2009 
Хиппей (support team)
User avatar
Joined: 30 Jul 2007
Posts: 123254
Lоcаtion: Киев (Kyiv, UA)
Age: 48
Name: Andrey
<a href="ed2k://|file|China%20[1988]%20[CD]%20China%20[EAC-FLAC]%20by%20frafra64%20[MeTaLMaDNeSS.TeaM].rar|305369801|0D4F2C5B183501315D437CBD9EB3060D|/">China [1988] [CD] China [EAC-FLAC] by frafra64 [MeTaLMaDNeSS.TeaM].rar</a>


Top
 Profile E-mail  
 
 
PostPosted: 13 Feb 2009 
Хиппей (support team)
User avatar
Joined: 30 Jul 2007
Posts: 123254
Lоcаtion: Киев (Kyiv, UA)
Age: 48
Name: Andrey
Ой, скачал альбом пару недель назад и сразу распаковал. Сейчас для того, чтоб архивнуть и залить на обменник места на винтах нету. Так что через пару дней попробую...
Это я сам для себя сообщение оставил, чтоб не забыть :oops:


Top
 Profile E-mail  
 
 
PostPosted: 13 Feb 2009 
Персональный статус
User avatar
Joined: 24 Aug 2007
Posts: 303
Lоcаtion: Иваново
Age: 48
Name: Вован
Ну и как он тебе?


Top
 Profile E-mail  
 
 
PostPosted: 13 Feb 2009 
Хиппей (support team)
User avatar
Joined: 30 Jul 2007
Posts: 123254
Lоcаtion: Киев (Kyiv, UA)
Age: 48
Name: Andrey
Lard wrote:
Ну и как он

Средненький хардынхэви такой. Местами напоминает ранний... Van Halen :shok:


Top
 Profile E-mail  
 
 
PostPosted: 13 Feb 2009 
Персональный статус
User avatar
Joined: 24 Aug 2007
Posts: 303
Lоcаtion: Иваново
Age: 48
Name: Вован
China - 1988 - China [flac]
Image



Genre: Hard & Heavy
Location: Switzerland
Size: 291 Mb
Format: flac+cue+log


Line-up:
Claudio Matteo - (Bloody Six, Witchcraft)- guitar
Freddy Laurence - guitar
John Dommen - drums
Marc Lynn - (Gotthard, Krak) - bass
Math Shiverow - vocals
    1. Shout It Out
    2. Back To You
    3. The Fight Is On
    4. Wild Jealousy
    5. Rock City
    6. Hot Lovin' Night
    7. Living On The Stage
    8. I Need Your Love
    9. When Passion Burns
    10. Staying Alive
Narod

За релиз благодарим frafra64 from MetalMadnessTeam :thanx:

Image
Quote:
Exact Audio Copy V0.99 prebeta 3 from 28. July 2007

EAC extraction logfile from 10. January 2009, 14:49

China / China

Used drive : LITE-ON DVDRW SHM-165P6S Adapter: 1 ID: 1

Read mode : Secure
Utilize accurate stream : Yes
Defeat audio cache : Yes
Make use of C2 pointers : No

Read offset correction : 6
Overread into Lead-In and Lead-Out : No
Fill up missing offset samples with silence : Yes
Delete leading and trailing silent blocks : No
Null samples used in CRC calculations : Yes
Used interface : Installed external ASPI interface

Used output format : Internal WAV Routines
Sample format : 44.100 Hz; 16 Bit; Stereo


TOC of the extracted CD

Track | Start | Length | Start sector | End sector
---------------------------------------------------------
1 | 0:00.33 | 0:59.37 | 33 | 4494
2 | 0:59.70 | 4:11.68 | 4495 | 23387
3 | 5:11.63 | 3:42.20 | 23388 | 40057
4 | 8:54.08 | 4:19.00 | 40058 | 59482
5 | 13:13.08 | 4:25.52 | 59483 | 79409
6 | 17:38.60 | 3:08.10 | 79410 | 93519
7 | 20:46.70 | 4:44.00 | 93520 | 114819
8 | 25:30.70 | 4:11.00 | 114820 | 133644
9 | 29:41.70 | 4:15.25 | 133645 | 152794
10 | 33:57.20 | 3:26.00 | 152795 | 168244
11 | 37:23.20 | 3:21.13 | 168245 | 183332
12 | 40:44.33 | 3:30.00 | 183333 | 199082


Range status and errors

Selected range

Filename J:\MMT\China - China.wav

Peak level 100.0 %
Range quality 100.0 %
Copy CRC 88946091
Copy OK

No errors occurred


Last edited by Lard on 13 Aug 2013, edited 1 time in total.

Top
 Profile E-mail  
 
 
PostPosted: 14 Feb 2009 
Хиппей (support team)
User avatar
Joined: 30 Jul 2007
Posts: 123254
Lоcаtion: Киев (Kyiv, UA)
Age: 48
Name: Andrey
Вовка, спасибо :thanx:
Опередил меня на пару часов, засранец :dash: :nunu:


зы. По ссылке лось, если кто не понял :true:


Top
 Profile E-mail  
 
Display posts from previous:  Sort by  
Post new topic Reply to topic  [ 9 posts ] 

All times are UTC + 3 hours


Who is online

Users browsing this forum: No registered users and 1 guest


You cannot post new topics in this forum
You cannot reply to topics in this forum
You cannot edit your posts in this forum
You cannot delete your posts in this forum

Search for:
Яндекс.Метрика
Powered by phpBB © 2000, 2002, 2005, 2007 phpBB Group