\m/ 80's metal \m/

Информационно-аналитический форум "80 см пыли" (In Search We Trust) "У нас никто никуда не спешит"
Me For You - http://me-4u.com
It is currently 06 Dec 2021

All times are UTC + 3 hours

Spoiler
Chat - temporary registration for foreign users (please leave your application here)







Post new topic Reply to topic  [ 116 posts ]  Go to page Previous  1, 2, 3, 4, 5, 6
Author Message
 
PostPosted: 14 Mar 2020 
Хиппей (support team)
User avatar
Joined: 30 Jul 2007
Posts: 123251
Lоcаtion: Киев (Kyiv, UA)
Age: 48
Name: Andrey
Vitaly65 wrote:
Crack Jaw - 1985 - Nightout (SPV 60-7587 Steamhammer 1989) (EAC-FLAC)

:thanx:

mirror: Telega l Ur-Files l Uloz l Narod

_________________


Top
 Profile E-mail  
 
 
PostPosted: 14 Mar 2020 
Рарник и трушник
User avatar
Joined: 25 Dec 2009
Posts: 9743
Lоcаtion: Москва
Age: 56
Name: Виталий
Scatterbrain wrote:
А если поверх барабаны прописать? :tro:

Делай, я не против. :pardon:


Top
 Profile  
 
 
PostPosted: 14 Mar 2020 
Хиппей (support team)
User avatar
Joined: 30 Jul 2007
Posts: 123251
Lоcаtion: Киев (Kyiv, UA)
Age: 48
Name: Andrey
Ай, не. Я пока не умею. Легче тогда вообще всё перезаписать с нуля, использовав ноты и вокал и лирику.
Чую это давно реально сделать даже на компе.

_________________


Top
 Profile E-mail  
 
 
PostPosted: 14 Mar 2020 
Рарник и трушник
User avatar
Joined: 25 Dec 2009
Posts: 9743
Lоcаtion: Москва
Age: 56
Name: Виталий
Scatterbrain wrote:
Легче тогда вообще всё перезаписать с нуля, использовав ноты и вокал и лирику.
Чую это давно реально сделать даже на компе.

Мысль твою понял. Иногда делается так: выдавливается из фанеры вокал (он мерзко звучит, плоско и крикливо), обрабатывается в редакторе (добавляются низы, расширяется динамический диапазон, изменяется тональность и ещё там чё-нить). Потом приглашаются музыканты, которые играют инструментальные партии (по нотам или на слух), всё это сводится по современному и сверху накладывается обработанный вокал. Оп-ля! Готова новая фанера. :pardon:


Top
 Profile  
 
 
PostPosted: 14 Mar 2020 
Прокъмитолист
User avatar
Joined: 12 Aug 2007
Posts: 6878
Lоcаtion: Санктъ-Петербуркъ
Age: 54
Name: Олекъ
Виталь, спасибо :thanx:

_________________
прокъметол - это музыко, от которово есть прок (ы)


Top
 Profile  
 
 
PostPosted: 14 Mar 2020 
Хиппей (support team)
User avatar
Joined: 30 Jul 2007
Posts: 123251
Lоcаtion: Киев (Kyiv, UA)
Age: 48
Name: Andrey
Vitaly65 wrote:
Иногда делается так: выдавливается из фанеры вокал

Кстати, где-то на днях на каком-то большом портале была презентация софтинки по уникальному расслоению вокала и музыки на составляющие.
Как вспомню, сразу к нам в тему о звуке брошу. Сам хотел сразу проверить, но они даже пока пробники-триалки не дают.

_________________


Top
 Profile E-mail  
 
 
PostPosted: 14 Mar 2020 
Хиппей (support team)
User avatar
Joined: 30 Jul 2007
Posts: 123251
Lоcаtion: Киев (Kyiv, UA)
Age: 48
Name: Andrey
Vitaly65 wrote:
Потом приглашаются музыканты, которые играют инструментальные партии (по нотам или на слух)

А нафиг?
Если уже роботы давно пишут музыку один-в-один, использую не то что ноты, но просто правильный набор сэмплов? :scratch:

_________________


Top
 Profile E-mail  
 
 
PostPosted: 14 Mar 2020 
Хиппей (support team)
User avatar
Joined: 30 Jul 2007
Posts: 123251
Lоcаtion: Киев (Kyiv, UA)
Age: 48
Name: Andrey
Vitaly65 wrote:
Оп-ля! Готова новая фанера

Не-не. Готова новая версия старой песни, только в качестве :meloman:

Вот тут может сейчас Серёга splatty в тему влезть и даже Толик :kro:

_________________


Top
 Profile E-mail  
 
 
PostPosted: 14 Mar 2020 
Трешер
User avatar
Joined: 25 Feb 2011
Posts: 1292
Lоcаtion: Харьков
Age: 45
Name: Aleksandr
Вы что ребята разошлись то? Что переписывать ? Нормально альбом записан , пойдет ! Бывало и хуже! :vic:

_________________
Вдруг все оборвалось ... Утерян смысл жизни.


Top
 Profile E-mail  
 
 
PostPosted: 16 Mar 2020 
А может смените мне статус?..
User avatar
Joined: 24 Dec 2008
Posts: 679
Age: 47
Name: Дмитрий
Виталий, спасибо! :thanx:


Top
 Profile  
 
 
PostPosted: 16 Mar 2020 
Хиппей (support team)
User avatar
Joined: 30 Jul 2007
Posts: 123251
Lоcаtion: Киев (Kyiv, UA)
Age: 48
Name: Andrey
Вы что ребята разошлись то? Что переписывать ? Нормально альбом записан , пойдет ! Бывало и хуже! :vic:

С я утра начал слушать рип издания от поляков - жуть. Сразу звук от мп3 шибанул в кепочку :fingal:
А вот рип с винила от Виталия хоть и не звучит идеально, но его ж мона и нуна слушать :meloman:

_________________


Top
 Profile E-mail  
 
 
PostPosted: 16 Mar 2020 
Рарник и трушник
User avatar
Joined: 25 Dec 2009
Posts: 9743
Lоcаtion: Москва
Age: 56
Name: Виталий
Scatterbrain wrote:
рип с винила от Виталия хоть и не звучит идеально

Отчегож? Он звучит идеально. :pardon: Просто потому что я не делал винил-рип этой команды :pardon:


Top
 Profile  
 
 
PostPosted: 17 Mar 2020 
Трешер
User avatar
Joined: 25 Feb 2011
Posts: 1292
Lоcаtion: Харьков
Age: 45
Name: Aleksandr
От каких поляков ? :vic:

_________________
Вдруг все оборвалось ... Утерян смысл жизни.


Top
 Profile E-mail  
 
 
PostPosted: 17 Mar 2020 
Хиппей (support team)
User avatar
Joined: 30 Jul 2007
Posts: 123251
Lоcаtion: Киев (Kyiv, UA)
Age: 48
Name: Andrey
Scatterbrain wrote:
рип с винила от Виталия хоть и не звучит идеально

Отчегож? Он звучит идеально. :pardon: Просто потому что я не делал винил-рип этой команды :pardon:

Ааа, етить, сорян. Я думал это у тебя старый винил на болванке записан. А это перворпесс.


Начал с утра зачем-то слушать рип диска от Картхаго = жуть, едрить. Сорян-2, это я их поляками назвал.. :pardon:

_________________


Top
 Profile E-mail  
 
 
PostPosted: 20 Mar 2020 
Хиппей (support team)
User avatar
Joined: 30 Jul 2007
Posts: 123251
Lоcаtion: Киев (Kyiv, UA)
Age: 48
Name: Andrey
Цуко, срач в теме.
Нашёл у себя на винте рип от Каторги. Там указан 2016-й, а не 15-1 год переиздания.
Ну и по объёму чуть меньше, чем сюда заливал Серёга.
Короче, залью с логом и куем, сами разберетесь, где чей :esel: :esel: :esel: :pardon:

Ну звук по-прежнему фуфлище.


А на Виталике рипе почти всё кра-со-та. Учитесь, лапшеты :lloo:

_________________


Top
 Profile E-mail  
 
 
PostPosted: 20 Mar 2020 
Хиппей (support team)
User avatar
Joined: 30 Jul 2007
Posts: 123251
Lоcаtion: Киев (Kyiv, UA)
Age: 48
Name: Andrey
Crack Jaw - 2016 - Branded (KR085-HMDC003)

Image

mirror: Telega l Ur-Files l Uloz l Narod

log
Exact Audio Copy V1.1 from 23. June 2015

EAC extraction logfile from 3. October 2016, 13:55

Crack Jaw / Branded (KR085-HMDC003)

Used drive : PIONEER BD-RW BDR-209D Adapter: 0 ID: 5

Read mode : Secure
Utilize accurate stream : Yes
Defeat audio cache : Yes
Make use of C2 pointers : No

Read offset correction : 667
Overread into Lead-In and Lead-Out : No
Fill up missing offset samples with silence : Yes
Delete leading and trailing silent blocks : No
Null samples used in CRC calculations : Yes
Used interface : Installed external ASPI interface

Used output format : User Defined Encoder
Selected bitrate : 768 kBit/s
Quality : High
Add ID3 tag : No
Command line compressor : C:\Program Files (x86)\Exact Audio Copy\FLAC\FLAC.EXE
Additional command line options : -6 -V -T "ARTIST=%artist%" -T "TITLE=%title%" -T "ALBUM=%albumtitle%" -T "DATE=%year%" -T "TRACKNUMBER=%tracknr%" -T "GENRE=%genre%" -T "COMMENT=%comment%" -T "BAND=%albuminterpret%" -T "ALBUMARTIST=%albuminterpret%" -T "COMPOSER=%composer%" %haslyrics%--tag-from-file=LYRICS="%lyricsfile%"%haslyrics% -T "DISCNUMBER=%cdnumber%" -T "TOTALDISCS=%totalcds%" -T "TOTALTRACKS=%numtracks%" %hascover%--picture="%coverfile%"%hascover% %source% -o %dest%


TOC of the extracted CD

Track | Start | Length | Start sector | End sector
---------------------------------------------------------
1 | 0:00.00 | 4:08.12 | 0 | 18611
2 | 4:08.12 | 4:58.49 | 18612 | 41010
3 | 9:06.61 | 4:40.32 | 41011 | 62042
4 | 13:47.18 | 3:06.50 | 62043 | 76042
5 | 16:53.68 | 3:37.41 | 76043 | 92358
6 | 20:31.34 | 2:23.11 | 92359 | 103094
7 | 22:54.45 | 5:15.44 | 103095 | 126763
8 | 28:10.14 | 3:45.05 | 126764 | 143643
9 | 31:55.19 | 5:30.43 | 143644 | 168436
10 | 37:25.62 | 2:57.08 | 168437 | 181719
11 | 40:22.70 | 4:56.36 | 181720 | 203955
12 | 45:19.31 | 5:33.25 | 203956 | 228955
13 | 50:52.56 | 4:08.63 | 228956 | 247618
14 | 55:01.44 | 4:59.19 | 247619 | 270062
15 | 60:00.63 | 3:37.60 | 270063 | 286397
16 | 63:38.48 | 3:47.60 | 286398 | 303482


Range status and errors

Selected range

Filename E:\MUSIC\Crack Jaw - Branded (KR085-HMDC003).wav

Peak level 98.8 %
Extraction speed 7.8 X
Range quality 99.9 %
Test CRC 9E4FFDE5
Copy CRC 9E4FFDE5
Copy OK

No errors occurred


AccurateRip summary

Track 1 not present in database
Track 2 not present in database
Track 3 not present in database
Track 4 not present in database
Track 5 not present in database
Track 6 not present in database
Track 7 not present in database
Track 8 not present in database
Track 9 not present in database
Track 10 not present in database
Track 11 not present in database
Track 12 not present in database
Track 13 not present in database
Track 14 not present in database
Track 15 not present in database
Track 16 not present in database

None of the tracks are present in the AccurateRip database

End of status report

==== Log checksum DDC1126E2747CBFB4CFDCB521E4CD7DDA704C8CD9C2B89E237436A1CB6B24664 ====

cue
REM GENRE "Heavy Metal"
REM DATE 2016
REM DISCID C60FCE10
REM COMMENT "ExactAudioCopy v1.1"
PERFORMER "Crack Jaw"
TITLE "Branded (KR085-HMDC003)"
FILE "Crack Jaw - Branded (KR085-HMDC003).flac" WAVE
TRACK 01 AUDIO
TITLE "1. Beyond the Border"
PERFORMER "Crack Jaw"
INDEX 01 00:00:00
TRACK 02 AUDIO
TITLE "2. Trojan Horse"
PERFORMER "Crack Jaw"
INDEX 00 04:06:12
INDEX 01 04:08:12
TRACK 03 AUDIO
TITLE "3. Branded"
PERFORMER "Crack Jaw"
INDEX 00 09:04:61
INDEX 01 09:06:61
TRACK 04 AUDIO
TITLE "4. Rainbow Cruise"
PERFORMER "Crack Jaw"
INDEX 00 13:45:18
INDEX 01 13:47:18
TRACK 05 AUDIO
TITLE "5. Wayside Icon"
PERFORMER "Crack Jaw"
INDEX 00 16:51:68
INDEX 01 16:53:68
TRACK 06 AUDIO
TITLE "6. Metal Master"
PERFORMER "Crack Jaw"
INDEX 00 20:29:34
INDEX 01 20:31:34
TRACK 07 AUDIO
TITLE "7. Hellkids of Rock"
PERFORMER "Crack Jaw"
INDEX 00 22:52:45
INDEX 01 22:54:45
TRACK 08 AUDIO
TITLE "8. Touch and Burn"
PERFORMER "Crack Jaw"
INDEX 00 28:08:14
INDEX 01 28:10:14
TRACK 09 AUDIO
TITLE "9. Long Cold Lonely Nights"
PERFORMER "Crack Jaw"
INDEX 00 31:53:19
INDEX 01 31:55:19
TRACK 10 AUDIO
TITLE "10. Allied"
PERFORMER "Crack Jaw"
INDEX 00 37:23:62
INDEX 01 37:25:62
TRACK 11 AUDIO
TITLE "11. Stories (Bonustrack)"
PERFORMER "Crack Jaw"
INDEX 00 40:20:70
INDEX 01 40:22:70
TRACK 12 AUDIO
TITLE "12. Breaking Away (Bonustrack)"
PERFORMER "Crack Jaw"
INDEX 00 45:17:31
INDEX 01 45:19:31
TRACK 13 AUDIO
TITLE "13. Beyond the Border (Bonustrack)"
PERFORMER "Crack Jaw"
INDEX 00 50:50:56
INDEX 01 50:52:56
TRACK 14 AUDIO
TITLE "14. Trojan Horse (Bonustrack)"
PERFORMER "Crack Jaw"
INDEX 00 54:59:44
INDEX 01 55:01:44
TRACK 15 AUDIO
TITLE "15. Wayside Icon (Bonustrack)"
PERFORMER "Crack Jaw"
INDEX 00 59:58:63
INDEX 01 60:00:63
TRACK 16 AUDIO
TITLE "16. Casual Matters (Bonustrack)"
PERFORMER "Crack Jaw"
INDEX 00 63:36:48
INDEX 01 63:38:48


scans
Image

Image

Image

Image

Image

Image

Image

Image

Image

Image

Image

Image

Image

Image

_________________


Top
 Profile E-mail  
 
Display posts from previous:  Sort by  
Post new topic Reply to topic  [ 116 posts ]  Go to page Previous  1, 2, 3, 4, 5, 6

All times are UTC + 3 hours


Who is online

Users browsing this forum: No registered users and 1 guest


You cannot post new topics in this forum
You cannot reply to topics in this forum
You cannot edit your posts in this forum
You cannot delete your posts in this forum

Search for:
Яндекс.Метрика
Powered by phpBB © 2000, 2002, 2005, 2007 phpBB Group