\m/ 80's metal \m/

Информационно-аналитический форум "80 см пыли" (In Search We Trust) "У нас никто никуда не спешит"
Me For You - http://me-4u.com
It is currently 06 Dec 2021

All times are UTC + 3 hours

Spoiler
Chat - temporary registration for foreign users (please leave your application here)







Post new topic Reply to topic  [ 12 posts ] 
Author Message
 
PostPosted: 25 Apr 2019 
Хиппей (support team)
User avatar
Joined: 30 Jul 2007
Posts: 123253
Lоcаtion: Киев (Kyiv, UA)
Age: 48
Name: Andrey
Claymorean (ех-Claymore) [Epic Power Metal] [SRB]

2003 - The First Dawn of Sorrow (as Claymore)
https://claymore1.bandcamp.com/album/th ... -of-sorrow


2016 - Demo 2016
https://claymore1.bandcamp.com/album/demo-2016

Группа повзрослела и возженственела :kro:

Claymorean - "Old Mountain" (Official Lyrics Video)



Былые альбомы перезалить не успел, конечно же. Теперь они уже с лэйбом на контракте и по 3 евро за цифру :kro:

_________________


Last edited by Scatterbrain on 28 Apr 2019, edited 1 time in total.
Новая тема выросла из этой - http://80metal.com/viewtopic.php?f=29&t=12846


Top
 Profile E-mail  
 
 
PostPosted: 25 Apr 2019 
Partisanen - nicht kapitulieren!!
User avatar
Joined: 25 Dec 2011
Posts: 7763
Lоcаtion: партизанские леса
Age: 49
Name: Владимир
Scatterbrain wrote:
Былые альбомы перезалить не успел, конечно же.

:nunu:

https://cloud.mail.ru/public/5n1w/UWQvKW5gD

_________________
One more beer and Heavy Metal and I'm just fine!
старовер, куле... слово "блин" - до сих пор через Ъ говорю


Top
 Profile E-mail  
 
 
PostPosted: 25 Apr 2019 
Хиппей (support team)
User avatar
Joined: 30 Jul 2007
Posts: 123253
Lоcаtion: Киев (Kyiv, UA)
Age: 48
Name: Andrey
Ой, Володь, умничка какой ты :thanx: :thanx:

_________________


Top
 Profile E-mail  
 
 
PostPosted: 28 Apr 2019 
Хиппей (support team)
User avatar
Joined: 30 Jul 2007
Posts: 123253
Lоcаtion: Киев (Kyiv, UA)
Age: 48
Name: Andrey
Claymorean - 2016 - Demo [flacs] BC-rip

Image

mirror: Ur-Files l Telega l Uloz l Narod l M-Cloud

Вроде ничего особенного, шо всё же шедеврально :true: :true: :true:

Если вдруг полноформатник не понравится, то эту демку точно заберу в личные топ-топы :kro:

8/10

_________________


Top
 Profile E-mail  
 
 
PostPosted: 28 Apr 2019 
Хиппей (support team)
User avatar
Joined: 30 Jul 2007
Posts: 123253
Lоcаtion: Киев (Kyiv, UA)
Age: 48
Name: Andrey
Тьху, а на дебютном альбоме, который начал слушать только что - мальчик поёт.

зы. Ага, дальше девочка должна запеть тут же - глянул в писке участников.
зыз. Ага, во второй половине первой песне зашла :kro: :kro: :kro:


Claymorean - 2003 - The First Dawn of Sorrow [flacs] BC-rip

Image

mirror: Ur-Files l Telega l Uloz l Narod l M-Cloud

_________________


Top
 Profile E-mail  
 
 
PostPosted: 28 Apr 2019 
Хиппей (support team)
User avatar
Joined: 30 Jul 2007
Posts: 123253
Lоcаtion: Киев (Kyiv, UA)
Age: 48
Name: Andrey
Пару недостающих альбомов, вроде, есть на Трахторе. Не проверял пока внимательно.
Но мне дебютный уже НЕ нравится. Модняк какой-то с помпезным саундом :(

_________________


Top
 Profile E-mail  
 
 
PostPosted: 28 Apr 2019 
Хиппей (support team)
User avatar
Joined: 30 Jul 2007
Posts: 123253
Lоcаtion: Киев (Kyiv, UA)
Age: 48
Name: Andrey
Хрень хреновая, вырубить хочу, но дослушаю всё же это сопливый европавер.
Егору явно и такое гавнище покатит :yyy:

_________________


Top
 Profile E-mail  
 
 
PostPosted: 28 Apr 2019 
Хиппей (support team)
User avatar
Joined: 30 Jul 2007
Posts: 123253
Lоcаtion: Киев (Kyiv, UA)
Age: 48
Name: Andrey
Scatterbrain wrote:
Claymorean - 2003 - The First Dawn of Sorrow

В общем, хрень дичайшая. Модный типа пауэр с ... искусственными забивающими ухи клавишными и примитивными мотивами.
Мужской вокал превалирует. Иногда возникает и женский, но он до такой степени затёртый, как тот пупок у студентки плохой из анекдота.
Короче, низкопробный павер во всег его грехах на Пасху

3/10


Надеюсь, дальше группа сменит и подходъ к написанию музыки и этого дрыща за вокальной стойкой. Ему за барную бы встать.

зы. Топик этот явно отделю в отдельную тему. Группа созрела. И я тоже.

_________________


Top
 Profile E-mail  
 
 
PostPosted: 29 Apr 2019 
Хиппей (support team)
User avatar
Joined: 30 Jul 2007
Posts: 123253
Lоcаtion: Киев (Kyiv, UA)
Age: 48
Name: Andrey
Claymorean - 2015 - Unbroken [flac]

Image Image

Image Image

mirror: Ur-Files l Telega l Uloz l Narod l M-Cloud

Вчера, слушая на ночь альбом, дико негодовал этому.. эпическому дерьму, слушая альбом.
Мало того, что большинство вокальных партий исполнялось мужским голосом, так тут ещё и модный саунд, ненавистный мне и сопли на вёслах по всей галере, и прочие нелюбимые мной вкраплений фольковых мотивов и журчащих ручейков, горных эхов и трубного звона литавр.
В общем. забраковал сразу альбом и уснул под него, ничтоже сумняшеся.

Сегодня же, отгуляв очередную успешно никчемную Пасху, слушаю этот альбом прям взахлёб.
Он божественен, хоть и эпичен. Особо, конечно, радует, женский спокойный вокал и.. песня на сербском языке почти в самом финале.

Короче, отбросил я предвзятость былую к такой музыке да и сижу-стою, бегаю, и прусь-прусь-наслаждаюсь :meloman: :meloman: :meloman: :meloman:


8/10

Естественно, альбом уходит в личные топы. Но я ещё жду сюрприза от релиза 2017 года :lloo:

log
Exact Audio Copy V1.0 beta 3 from 29. August 2011

EAC extraction logfile from 15. March 2016, 16:54

Claymorean / Unbroken

Used drive : PIONEER DVD-RW DVR-221L Adapter: 1 ID: 0

Read mode : Secure
Utilize accurate stream : Yes
Defeat audio cache : Yes
Make use of C2 pointers : No

Read offset correction : 6
Overread into Lead-In and Lead-Out : No
Fill up missing offset samples with silence : Yes
Delete leading and trailing silent blocks : No
Null samples used in CRC calculations : Yes
Used interface : Native Win32 interface for Win NT & 2000

Used output format : User Defined Encoder
Selected bitrate : 896 kBit/s
Quality : High
Add ID3 tag : No
Command line compressor : C:\Program Files (x86)\Exact Audio Copy\Flac\flac.exe
Additional command line options : -V -8 -T "Date=%year%" -T "Genre=%genre%" %source%


TOC of the extracted CD

Track | Start | Length | Start sector | End sector
---------------------------------------------------------
1 | 0:00.00 | 7:04.42 | 0 | 31841
2 | 7:04.42 | 6:08.56 | 31842 | 59497
3 | 13:13.23 | 1:00.32 | 59498 | 64029
4 | 14:13.55 | 4:21.61 | 64030 | 83665
5 | 18:35.41 | 5:10.66 | 83666 | 106981
6 | 23:46.32 | 5:03.61 | 106982 | 129767
7 | 28:50.18 | 4:17.05 | 129768 | 149047
8 | 33:07.23 | 4:48.49 | 149048 | 170696
9 | 37:55.72 | 5:04.10 | 170697 | 193506
10 | 43:00.07 | 4:51.08 | 193507 | 215339


Range status and errors

Selected range

Filename C:\Askarida666\Claymorean - Unbroken.wav

Peak level 99.9 %
Extraction speed 4.5 X
Range quality 100.0 %
Test CRC C54AF122
Copy CRC C54AF122
Copy OK

No errors occurred


AccurateRip summary

Track 1 not present in database
Track 2 not present in database
Track 3 not present in database
Track 4 not present in database
Track 5 not present in database
Track 6 not present in database
Track 7 not present in database
Track 8 not present in database
Track 9 not present in database
Track 10 not present in database

None of the tracks are present in the AccurateRip database

End of status report

==== Log checksum 335EA3CFC432F2DD26553A284668EEFE6A9F1CC2439F2B442A8D04EAF2053218 ====

cue
REM GENRE "Epic Power Metal"
REM DATE 2015
REM DISCID 990B370A
REM COMMENT "ExactAudioCopy v1.0b3"
PERFORMER "Claymorean"
TITLE "Unbroken"
FILE "Claymorean - Unbroken.flac" WAVE
TRACK 01 AUDIO
TITLE "Heldenhammer"
PERFORMER "Claymorean"
FLAGS DCP
INDEX 01 00:00:00
TRACK 02 AUDIO
TITLE "Gods Of Chaos"
PERFORMER "Claymorean"
FLAGS DCP
INDEX 01 07:04:42
TRACK 03 AUDIO
TITLE "Warp"
PERFORMER "Claymorean"
FLAGS DCP
INDEX 01 13:13:23
TRACK 04 AUDIO
TITLE "The Everchosen"
PERFORMER "Claymorean"
FLAGS DCP
INDEX 01 14:13:55
TRACK 05 AUDIO
TITLE "Ironhide"
PERFORMER "Claymorean"
FLAGS DCP
INDEX 01 18:35:41
TRACK 06 AUDIO
TITLE "Aeons Of Revelations"
PERFORMER "Claymorean"
FLAGS DCP
INDEX 01 23:46:32
TRACK 07 AUDIO
TITLE "Dreamer On A Path Of Light"
PERFORMER "Claymorean"
FLAGS DCP
INDEX 01 28:50:18
TRACK 08 AUDIO
TITLE "Silent Guardians"
PERFORMER "Claymorean"
FLAGS DCP
INDEX 01 33:07:23
TRACK 09 AUDIO
TITLE "We Fight Like Lions"
PERFORMER "Claymorean"
FLAGS DCP
INDEX 01 37:55:72
TRACK 10 AUDIO
TITLE "Into The Courts Of Chaos (Manilla Road Cover)"
PERFORMER "Claymorean"
FLAGS DCP
INDEX 01 43:00:07


Image Image Image

Image Image Image

_________________


Top
 Profile E-mail  
 
 
PostPosted: 29 Apr 2019 
Хиппей (support team)
User avatar
Joined: 30 Jul 2007
Posts: 123253
Lоcаtion: Киев (Kyiv, UA)
Age: 48
Name: Andrey
Dejana "Betsa" Pavlović

Image

_________________


Top
 Profile E-mail  
 
 
PostPosted: 30 Apr 2019 
Хиппей (support team)
User avatar
Joined: 30 Jul 2007
Posts: 123253
Lоcаtion: Киев (Kyiv, UA)
Age: 48
Name: Andrey
Claymorean - 2017 - Sounds From a Dying World [320]

Image

mirror: Ur-Files l Telega l Uloz l Narod l M-Cloud

Об этом альбоме с самого начала здесь сообщал. С него и началось знакомство моё с группой.
Собственно, он всё же шедеврален. Обязателен к прослушиванию (must have), как писали в начале века на шпальтах Интернета.
Благо, вокалист затих ваще. Ушёл из группы или нет, мне пофиг. Главное шо не ноет. А с ним и музыка коллектива стала трушнее, тяжёлее, толковее и... приятнее. Вокал девичий хорош. Муzыка уже почти без эпических говно-вставок. Звук солидный, но не модный. В общем, я доволен как поп в прихожанке :thanx: :lob: :lob: :lob:

9/10

_________________


Top
 Profile E-mail  
 
 
PostPosted: 04 Aug 2020 
Хиппей (support team)
User avatar
Joined: 30 Jul 2007
Posts: 123253
Lоcаtion: Киев (Kyiv, UA)
Age: 48
Name: Andrey
Scatterbrain wrote:
Claymorean - 2003 - The First Dawn of Sorrow

В общем, хрень дичайшая. Модный типа пауэр с ... искусственными забивающими ухи клавишными и примитивными мотивами.
Мужской вокал превалирует. Иногда возникает и женский, но он до такой степени затёртый, как тот пупок у студентки плохой из анекдота.
Короче, низкопробный павер во всег его грехах на Пасху

3/10


Надеюсь, дальше группа сменит и подходъ к написанию музыки и этого дрыща за вокальной стойкой. Ему за барную бы встать.

зы. Топик этот явно отделю в отдельную тему. Группа созрела. И я тоже.

Зачем-то вчера снова эту дичь начал слушать. Да ещё и в мп3.
Мнение не изменилось = хрень :fingal:

_________________


Top
 Profile E-mail  
 
Display posts from previous:  Sort by  
Post new topic Reply to topic  [ 12 posts ] 

All times are UTC + 3 hours


Who is online

Users browsing this forum: No registered users and 1 guest


You cannot post new topics in this forum
You cannot reply to topics in this forum
You cannot edit your posts in this forum
You cannot delete your posts in this forum

Search for:
Яндекс.Метрика
Powered by phpBB © 2000, 2002, 2005, 2007 phpBB Group