\m/ 80's metal \m/

Информационно-аналитический форум "80 см пыли" (In Search We Trust) "У нас никто никуда не спешит"
Me For You - http://me-4u.com
It is currently 06 Dec 2021

All times are UTC + 3 hours

Spoiler
Chat - temporary registration for foreign users (please leave your application here)







Post new topic Reply to topic  [ 27 posts ]  Go to page 1, 2  Next
Author Message
 
PostPosted: 17 Feb 2019 
Персональный статус
User avatar
Joined: 28 Mar 2013
Posts: 211
Lоcаtion: Parana-Brazil
Age: 56
Name: Pedro Gabriel Lanza
Image Image

01 - Ivory Stages
02 - You Have Changed
03 - Hero
04 - Where the Rainbow Dies
05 - Runnin' Like a Wolf
06 - No One's Crying
07 - Changing the Direction
08 - Struggling Along
09 - Fly Away
10 - Upright Smile
11 - The Song of Evening
12 - Alone Again
13 - Thundergods
14 - Shining

Bitrate: mp3 320 kbps
Label: No Remorse Records

https://we.tl/t-PGhKBUODIv

About it
https://0dayroxx.blogspot.com/2018/06/C ... tteri.html

I don't have it on lossless. But here is a good rip.

Image Image

_________________
I'm in my profile. Do you have considered me ugly? Fuck off your opinion.


Top
 Profile E-mail  
 
 
PostPosted: 17 Feb 2019 
Rara avis
User avatar
Joined: 27 Jan 2009
Posts: 5918
Name: .
:thanx:


Top
 Profile E-mail  
 
 
PostPosted: 17 Feb 2019 
Работнечег
User avatar
Joined: 28 Aug 2007
Posts: 6392
Lоcаtion: г. Москва
Age: 32
Name: Дима
:thanx:


Top
 Profile E-mail  
 
 
PostPosted: 18 Feb 2019 
Хиппей (support team)
User avatar
Joined: 30 Jul 2007
Posts: 123253
Lоcаtion: Киев (Kyiv, UA)
Age: 48
Name: Andrey
:thanx:

mirror: Uloz l Drop l Narod l M-Cloud

_________________


Top
 Profile E-mail  
 
 
PostPosted: 20 Feb 2019 
Хиппей (support team)
User avatar
Joined: 30 Jul 2007
Posts: 123253
Lоcаtion: Киев (Kyiv, UA)
Age: 48
Name: Andrey
Группа хорошая, жаль, что песен хитовых на сборке всего 2-3 штуки :(

6+/10

Одну из них попробую найти на Ютубе..

_________________


Top
 Profile E-mail  
 
 
PostPosted: 20 Feb 2019 
Хиппей (support team)
User avatar
Joined: 30 Jul 2007
Posts: 123253
Lоcаtion: Киев (Kyiv, UA)
Age: 48
Name: Andrey
Опачки, группа оказалась до сих пор более чем жива :dance: https://www.metal-archives.com/bands/Crying_Steel/3400

_________________


Top
 Profile E-mail  
 
 
PostPosted: 20 Feb 2019 
Хиппей (support team)
User avatar
Joined: 30 Jul 2007
Posts: 123253
Lоcаtion: Киев (Kyiv, UA)
Age: 48
Name: Andrey
На представленном альбоме Power Metal мной не был обнаружен, а вот типичный Hard & Heavy 80-х запроста :meloman:

_________________


Top
 Profile E-mail  
 
 
PostPosted: 20 Feb 2019 
Хиппей (support team)
User avatar
Joined: 30 Jul 2007
Posts: 123253
Lоcаtion: Киев (Kyiv, UA)
Age: 48
Name: Andrey
Scatterbrain wrote:
Одну из них попробую найти на Ютубе..

А вот она, Эмилем залитая ещё с демки :kro:




Или в более упругом качестве:

phpBB [audio]


Ха, но в виде кастрированного сэмпла.
Короче, в сборнике выше по ссылке звук намного круче. Толику на заметку.

зы. Ну и здесь всякие их другие песни :arrow: https://soundcloud.com/cryingsteel

_________________


Top
 Profile E-mail  
 
 
PostPosted: 20 Feb 2019 
Хиппей (support team)
User avatar
Joined: 30 Jul 2007
Posts: 123253
Lоcаtion: Киев (Kyiv, UA)
Age: 48
Name: Andrey
И ещё вот так :arrow: https://rutracker.org/forum/search.php? ... ng%20Steel

_________________


Top
 Profile E-mail  
 
 
PostPosted: 20 Feb 2019 
Я набрал 1000 сообщений!
Joined: 12 Dec 2008
Posts: 1102
Lоcаtion: BULGARIA
Age: 43
Name: DIMITЪR
Спасибо автору :true: :true: :true:
Было бы неплохо найти его лослес, альбомчик очень хорош :lob: :lob: :lob:

Crying Steel - Upright Smile (1987)

Crying Steel - Fly Away (1987)


Top
 Profile  
 
 
PostPosted: 26 Feb 2019 
Хиппей (support team)
User avatar
Joined: 30 Jul 2007
Posts: 123253
Lоcаtion: Киев (Kyiv, UA)
Age: 48
Name: Andrey
Crying Steel - 2007 - The Steel Is Back! [flac]

Image Image Image Image

mirror: Uloz l Drop l Narod l M-Cloud

Пока лучший альбом группы :lob: :lob: :lob:
Весьма приятный (но не слащавый) Melodic Metal с почти подростковым но красивым и правильным вокалом и всеми песнями-хитами :meloman: :meloman: :meloman:

9/10

Забираю релиз в личные топы :kro:

Image Image Image

log
Exact Audio Copy V0.99 prebeta 5 from 4. May 2009

EAC extraction logfile from 4. July 2011, 0:06

Crying Steel / The Steel Is Back!

Used drive : ASUS DRW-22B2S Adapter: 0 ID: 1

Read mode : Secure
Utilize accurate stream : Yes
Defeat audio cache : Yes
Make use of C2 pointers : No

Read offset correction : 6
Overread into Lead-In and Lead-Out : No
Fill up missing offset samples with silence : Yes
Delete leading and trailing silent blocks : No
Null samples used in CRC calculations : Yes
Used interface : Native Win32 interface for Win NT & 2000

Used output format : Internal WAV Routines
Sample format : 44.100 Hz; 16 Bit; Stereo


TOC of the extracted CD

Track | Start | Length | Start sector | End sector
---------------------------------------------------------
1 | 0:00.00 | 3:17.66 | 0 | 14840
2 | 3:17.66 | 4:06.16 | 14841 | 33306
3 | 7:24.07 | 4:18.62 | 33307 | 52718
4 | 11:42.69 | 3:36.74 | 52719 | 68992
5 | 15:19.68 | 3:45.62 | 68993 | 85929
6 | 19:05.55 | 3:48.70 | 85930 | 103099
7 | 22:54.50 | 4:32.74 | 103100 | 123573
8 | 27:27.49 | 4:08.74 | 123574 | 142247
9 | 31:36.48 | 4:01.28 | 142248 | 160350
10 | 35:38.01 | 4:41.08 | 160351 | 181433


Range status and errors

Selected range

Filename C:\Crying Steel - 2007 - The Steel Is Back!.wav

Peak level 100.0 %
Range quality 99.9 %
Test CRC 63539D50
Copy CRC 63539D50
Copy OK

No errors occurred


AccurateRip summary

Track 1 accurately ripped (confidence 1) [588B8E76]
Track 2 accurately ripped (confidence 1) [92E1DDC9]
Track 3 accurately ripped (confidence 1) [B8C62E23]
Track 4 accurately ripped (confidence 1) [24E9BA3D]
Track 5 accurately ripped (confidence 1) [272A107D]
Track 6 accurately ripped (confidence 1) [C6D6A982]
Track 7 accurately ripped (confidence 1) [15B204A8]
Track 8 accurately ripped (confidence 1) [075B49B0]
Track 9 accurately ripped (confidence 1) [21C40E9E]
Track 10 accurately ripped (confidence 1) [104C5766]

All tracks accurately ripped

End of status report

cue
REM GENRE "Heavy Metal"
REM DATE 2007
REM DISCID 8D09730A
REM COMMENT "ExactAudioCopy v0.99pb5"
PERFORMER "Crying Steel"
TITLE "The Steel Is Back!"
FILE "Crying Steel - 2007 - The Steel Is Back!.wav" WAVE
TRACK 01 AUDIO
TITLE "Kill Them All"
PERFORMER "Crying Steel"
INDEX 01 00:00:00
TRACK 02 AUDIO
TITLE "Over My Sins"
PERFORMER "Crying Steel"
INDEX 01 03:17:66
TRACK 03 AUDIO
TITLE "Raptor"
PERFORMER "Crying Steel"
INDEX 01 07:24:07
TRACK 04 AUDIO
TITLE "Hold Her"
PERFORMER "Crying Steel"
INDEX 01 11:42:69
TRACK 05 AUDIO
TITLE "Next Time Don't Lie"
PERFORMER "Crying Steel"
INDEX 01 15:19:68
TRACK 06 AUDIO
TITLE "Let It Down"
PERFORMER "Crying Steel"
INDEX 01 19:05:55
TRACK 07 AUDIO
TITLE "Three Times"
PERFORMER "Crying Steel"
INDEX 01 22:54:50
TRACK 08 AUDIO
TITLE "Night Owl"
PERFORMER "Crying Steel"
INDEX 01 27:27:49
TRACK 09 AUDIO
TITLE "Hands High"
PERFORMER "Crying Steel"
INDEX 01 31:36:48
TRACK 10 AUDIO
TITLE "Agony"
PERFORMER "Crying Steel"
INDEX 01 35:38:01

_________________


Top
 Profile E-mail  
 
 
PostPosted: 26 Feb 2019 
Хиппей (support team)
User avatar
Joined: 30 Jul 2007
Posts: 123253
Lоcаtion: Киев (Kyiv, UA)
Age: 48
Name: Andrey
Crying Steel - 2013 - Time Stands Steel [flac]

Image Image Image Image

mirror: Uloz l Drop l Narod l M-Cloud

Тоже хороший альбом, хоть и стиль изменился и вокал тоже.
Хитов меньше не стало, но они теперь не такие яркие. какие были 6 лет назад.
Правда, чем чаще слушаешь альбом. тем он больше нравится =))

Кратко об изменениях в музыке.
Скорости чуть стали менее скоростными и вперёд вышли мелодизм и соляки. Из плюсов - добавился такой стиль, как... Power Metal =))

Вокал.
Он стал наконец-то взрослым, но... и одновременно типичным очень. В общем, снова у меня создалось впечатление, что слушаю я очередных подражателей группы Hellowen :pardon:

7/10

Image Image Image Image

Image Image Image Image

log
Exact Audio Copy V1.0 beta 2 from 29. April 2011

Отчёт EAC об извлечении, выполненном 27. апреля 2013, 12:19

Crying Steel / Time Stands Steel

Дисковод: HL-DT-STDVD-RAM GSA-E60N Adapter: 2 ID: 0

Режим чтения : Достоверность
Использование точного потока : Да
Отключение кэша аудио : Да
Использование указателей C2 : Нет

Коррекция смещения при чтении : 102
Способность читать области Lead-in и Lead-out : Нет
Заполнение пропущенных сэмплов тишиной : Да
Удаление блоков с тишиной в начале и конце : Нет
При вычислениях CRC использовались нулевые сэмплы : Да
Интерфейс : Установленный внешний ASPI-интерфейс

Выходной формат : Пользовательский кодировщик
Выбранный битрейт : 1024 kBit/s
Качество : Высокий
Добавление ID3-тега : Нет
Утилита сжатия : C:\Program Files (x86)\Exact Audio Copy\FLAC\FLAC.EXE
Дополнительные параметры : -V -8 -T "Date=%year%" -T "Genre=%genre%" %source%


TOC извлечённого CD

Трек | Старт | Длительность | Начальный сектор | Конечный сектор
---------------------------------------------------------------------
1 | 0:00.00 | 4:14.53 | 0 | 19102
2 | 4:14.53 | 3:59.60 | 19103 | 37087
3 | 8:14.38 | 4:19.26 | 37088 | 56538
4 | 12:33.64 | 4:34.54 | 56539 | 77142
5 | 17:08.43 | 4:59.43 | 77143 | 99610
6 | 22:08.11 | 4:19.27 | 99611 | 119062
7 | 26:27.38 | 4:31.34 | 119063 | 139421
8 | 30:58.72 | 3:59.14 | 139422 | 157360
9 | 34:58.11 | 5:32.36 | 157361 | 182296
10 | 40:30.47 | 4:10.69 | 182297 | 201115
11 | 44:41.41 | 3:50.00 | 201116 | 218365
12 | 48:31.41 | 4:58.09 | 218366 | 240724


Характеристики диапазона извлечения и сообщения об ошибках

Выбранный диапазон

Имя файла D:\EAC\Crying Steel - Time Stands Steel.wav

Пиковый уровень 98.8 %
Скорость извлечения 2.7 X
Качество диапазона 99.9 %
CRC копии 75FDF160
Копирование... OK

Ошибок не произошло


AccurateRip: сводка

Трек 1 отсутствует в базе данных
Трек 2 отсутствует в базе данных
Трек 3 отсутствует в базе данных
Трек 4 отсутствует в базе данных
Трек 5 отсутствует в базе данных
Трек 6 отсутствует в базе данных
Трек 7 отсутствует в базе данных
Трек 8 отсутствует в базе данных
Трек 9 отсутствует в базе данных
Трек 10 отсутствует в базе данных
Трек 11 отсутствует в базе данных
Трек 12 отсутствует в базе данных

Ни одного трека нет в базе AccurateRip

Конец отчёта

cue
REM GENRE Metal
REM DATE 2013
REM DISCID 940C890C
REM COMMENT "ExactAudioCopy v1.0b2"
PERFORMER "Crying Steel"
TITLE "Time Stands Steel"
FILE "Crying Steel - Time Stands Steel.flac" WAVE
TRACK 01 AUDIO
TITLE "Defender"
PERFORMER "Crying Steel"
INDEX 01 00:00:00
TRACK 02 AUDIO
TITLE "Shut Down"
PERFORMER "Crying Steel"
INDEX 00 04:13:69
INDEX 01 04:14:53
TRACK 03 AUDIO
TITLE "Lookin' At"
PERFORMER "Crying Steel"
INDEX 00 08:13:32
INDEX 01 08:14:38
TRACK 04 AUDIO
TITLE "Rockin' Train"
PERFORMER "Crying Steel"
INDEX 00 12:32:22
INDEX 01 12:33:64
TRACK 05 AUDIO
TITLE "Heavens of Rock"
PERFORMER "Crying Steel"
INDEX 00 17:07:65
INDEX 01 17:08:43
TRACK 06 AUDIO
TITLE "Crying Steel"
PERFORMER "Crying Steel"
INDEX 00 22:07:57
INDEX 01 22:08:11
TRACK 07 AUDIO
TITLE "Metal Way"
PERFORMER "Crying Steel"
INDEX 00 26:26:37
INDEX 01 26:27:38
TRACK 08 AUDIO
TITLE "Starline"
PERFORMER "Crying Steel"
INDEX 00 30:58:62
INDEX 01 30:58:72
TRACK 09 AUDIO
TITLE "Riding"
PERFORMER "Crying Steel"
INDEX 00 34:57:08
INDEX 01 34:58:11
TRACK 10 AUDIO
TITLE "No Slip"
PERFORMER "Crying Steel"
INDEX 00 40:29:60
INDEX 01 40:30:47
TRACK 11 AUDIO
TITLE "Black Eve"
PERFORMER "Crying Steel"
INDEX 00 44:41:01
INDEX 01 44:41:41
TRACK 12 AUDIO
TITLE "Beverly Kills"
PERFORMER "Crying Steel"
INDEX 01 48:31:41

_________________


Top
 Profile E-mail  
 
 
PostPosted: 26 Feb 2019 
Анатолий
User avatar
Joined: 18 Oct 2008
Posts: 4216
Lоcаtion: Армавир
Age: 44
Name: Анатолий
Scatterbrain wrote:
Короче, в сборнике выше по ссылке звук намного круче. Толику на заметку.


Я не понял... а тут есть лось или как???


Top
 Profile E-mail  
 
 
PostPosted: 27 Feb 2019 
Хиппей (support team)
User avatar
Joined: 30 Jul 2007
Posts: 123253
Lоcаtion: Киев (Kyiv, UA)
Age: 48
Name: Andrey
Scatterbrain wrote:
Короче, в сборнике выше по ссылке звук намного круче. Толику на заметку.


Я не понял... а тут есть лось или как???

Лось?
В плане какого альбома?

_________________


Top
 Profile E-mail  
 
 
PostPosted: 27 Feb 2019 
Анатолий
User avatar
Joined: 18 Oct 2008
Posts: 4216
Lоcаtion: Армавир
Age: 44
Name: Анатолий
Scatterbrain wrote:
Короче, в сборнике выше по ссылке звук намного круче. Толику на заметку.


Ну вот ты мне написал... и я думаю... в отношении чего ты это написал? Какой альбом имел ввиду то???


Top
 Profile E-mail  
 
 
PostPosted: 27 Feb 2019 
Хиппей (support team)
User avatar
Joined: 30 Jul 2007
Posts: 123253
Lоcаtion: Киев (Kyiv, UA)
Age: 48
Name: Andrey
Этот сборник :arrow: https://www.metal-archives.com/albums/C ... owl/562920

_________________


Top
 Profile E-mail  
 
 
PostPosted: 27 Feb 2019 
Анатолий
User avatar
Joined: 18 Oct 2008
Posts: 4216
Lоcаtion: Армавир
Age: 44
Name: Анатолий
Scatterbrain wrote:
Этот сборник


Так, а разве в теме есть лось этого сборника... Что-то я ничего не пойму...


Top
 Profile E-mail  
 
 
PostPosted: 27 Feb 2019 
Хиппей (support team)
User avatar
Joined: 30 Jul 2007
Posts: 123253
Lоcаtion: Киев (Kyiv, UA)
Age: 48
Name: Andrey
Нету пока, конечно же.
Его никто не и запрашивал :kro:

_________________


Top
 Profile E-mail  
 
 
PostPosted: 27 Feb 2019 
Анатолий
User avatar
Joined: 18 Oct 2008
Posts: 4216
Lоcаtion: Армавир
Age: 44
Name: Анатолий
Вот жеж..., Андрiй, любишь ты с понталыку сбить...


Top
 Profile E-mail  
 
 
PostPosted: 28 Feb 2019 
Хиппей (support team)
User avatar
Joined: 30 Jul 2007
Posts: 123253
Lоcаtion: Киев (Kyiv, UA)
Age: 48
Name: Andrey
Дык, понталык не я то спутал :pardon:

_________________


Top
 Profile E-mail  
 
Display posts from previous:  Sort by  
Post new topic Reply to topic  [ 27 posts ]  Go to page 1, 2  Next

All times are UTC + 3 hours


Who is online

Users browsing this forum: No registered users and 1 guest


You cannot post new topics in this forum
You cannot reply to topics in this forum
You cannot edit your posts in this forum
You cannot delete your posts in this forum

Search for:
Яндекс.Метрика
Powered by phpBB © 2000, 2002, 2005, 2007 phpBB Group