\m/ 80's metal \m/

Информационно-аналитический форум "80 см пыли" (In Search We Trust) "У нас никто никуда не спешит"
Me For You - http://me-4u.com
It is currently 06 Dec 2021

All times are UTC + 3 hours

Spoiler
Chat - temporary registration for foreign users (please leave your application here)







Post new topic Reply to topic  [ 10 posts ] 
Author Message
 
PostPosted: 19 Feb 2017 
Генеральный thrasher
User avatar
Joined: 03 Oct 2008
Posts: 3751
Lоcаtion: Ханты-Мансийский АО
Age: 46
Name: Сергей
Помните этих динозавров?Вот чего-то взбрело им в голову наклепать альбом после долгих лет молчания.

Image

Year:2016
Style:Crossover/Thrash Metal
Country:U.K.
Archive:Flac+Cue+Log+Scans
Source:my CD
Size:303Mb
Label:Xtreem Music

Tracklist:
01. Justify 06:35
02. Mosh Injury 01:06
03. Crucified World 02:45
04. Realities of War 02:08
05. Skate Fear 01:54
06. Reality Pill 03:11
07. Dear Mother Earth 02:33
08. Dead Cities 02:06
09. Never Say Never Again 02:40
10. Felted Cross 05:09
11. Inside My Guts 03:00
12. Untitled Mystery Track 03:54

"Cue"
REM GENRE "Crossover/Thrash Metal"
REM DATE 2016
REM DISCID BE08AD0C
REM COMMENT "ExactAudioCopy v1.1"
PERFORMER "Cerebral Fix"
TITLE "Disaster of Reality"
FILE "Cerebral Fix - Disaster of Reality.flac" WAVE
TRACK 01 AUDIO
TITLE "Justify"
PERFORMER "Cerebral Fix"
INDEX 01 00:00:00
TRACK 02 AUDIO
TITLE "Mosh Injury"
PERFORMER "Cerebral Fix"
INDEX 01 06:34:64
TRACK 03 AUDIO
TITLE "Crucified World"
PERFORMER "Cerebral Fix"
INDEX 01 07:40:39
TRACK 04 AUDIO
TITLE "Realities of War"
PERFORMER "Cerebral Fix"
INDEX 01 10:25:14
TRACK 05 AUDIO
TITLE "Skate Fear"
PERFORMER "Cerebral Fix"
INDEX 01 12:32:72
TRACK 06 AUDIO
TITLE "Reality Pill"
PERFORMER "Cerebral Fix"
INDEX 01 14:26:74
TRACK 07 AUDIO
TITLE "Dear Mother Earth"
PERFORMER "Cerebral Fix"
INDEX 01 17:37:61
TRACK 08 AUDIO
TITLE "Dead Cities"
PERFORMER "Cerebral Fix"
INDEX 01 20:11:13
TRACK 09 AUDIO
TITLE "Never Say Never Again"
PERFORMER "Cerebral Fix"
INDEX 01 22:17:46
TRACK 10 AUDIO
TITLE "Felted Cross"
PERFORMER "Cerebral Fix"
INDEX 01 24:57:72
TRACK 11 AUDIO
TITLE "Inside My Guts"
PERFORMER "Cerebral Fix"
INDEX 01 30:06:61
TRACK 12 AUDIO
TITLE "Untitled Mystery Track"
PERFORMER "Cerebral Fix"
INDEX 01 33:07:16

"Log"
Exact Audio Copy V1.1 from 23. June 2015

Отчёт EAC об извлечении, выполненном 1. февраля 2017, 9:25

Cerebral Fix / Disaster of Reality

Дисковод: HL-DT-STDVDRAM GTA0N Adapter: 1 ID: 0

Режим чтения : Достоверность
Использование точного потока : Да
Отключение кэша аудио : Да
Использование указателей C2 : Нет

Коррекция смещения при чтении : 102
Способность читать области Lead-in и Lead-out : Нет
Заполнение пропущенных сэмплов тишиной : Да
Удаление блоков с тишиной в начале и конце : Нет
При вычислениях CRC использовались нулевые сэмплы : Да
Интерфейс : Встроенный Win32-интерфейс для Win NT/2000

Выходной формат : Пользовательский кодировщик
Выбранный битрейт : 768 kBit/s
Качество : Высокий
Добавление ID3-тега : Нет
Утилита сжатия : C:\Program Files (x86)\Exact Audio Copy\FLAC\FLAC.EXE
Дополнительные параметры : -6 -V -T "ARTIST=%artist%" -T "TITLE=%title%" -T "ALBUM=%albumtitle%" -T "DATE=%year%" -T "TRACKNUMBER=%tracknr%" -T "GENRE=%genre%" -T "COMMENT=%comment%" -T "BAND=%albuminterpret%" -T "ALBUMARTIST=%albuminterpret%" -T "COMPOSER=%composer%" %haslyrics%--tag-from-file=LYRICS="%lyricsfile%"%haslyrics% -T "DISCNUMBER=%cdnumber%" -T "TOTALDISCS=%totalcds%" -T "TOTALTRACKS=%numtracks%" %hascover%--picture="%coverfile%"%hascover% %source% -o %dest%


TOC извлечённого CD

Трек | Старт | Длительность | Начальный сектор | Конечный сектор
---------------------------------------------------------------------
1 | 0:00.00 | 6:34.64 | 0 | 29613
2 | 6:34.64 | 1:05.50 | 29614 | 34538
3 | 7:40.39 | 2:44.50 | 34539 | 46888
4 | 10:25.14 | 2:07.58 | 46889 | 56471
5 | 12:32.72 | 1:54.02 | 56472 | 65023
6 | 14:26.74 | 3:10.62 | 65024 | 79335
7 | 17:37.61 | 2:33.27 | 79336 | 90837
8 | 20:11.13 | 2:06.33 | 90838 | 100320
9 | 22:17.46 | 2:40.26 | 100321 | 112346
10 | 24:57.72 | 5:08.64 | 112347 | 135510
11 | 30:06.61 | 3:00.30 | 135511 | 149040
12 | 33:07.16 | 3:54.01 | 149041 | 166591


Характеристики диапазона извлечения и сообщения об ошибках

Выбранный диапазон

Имя файла C:\Users\магазин\Music\Cerebral Fix - Disaster of Reality.wav

Пиковый уровень 100.0 %
Скорость извлечения 3.7 X
Качество диапазона 100.0 %
CRC теста F22EA244
CRC копии F22EA244
Копирование... OK

Ошибок не произошло


AccurateRip: сводка

Трек 1 отсутствует в базе данных
Трек 2 отсутствует в базе данных
Трек 3 отсутствует в базе данных
Трек 4 отсутствует в базе данных
Трек 5 отсутствует в базе данных
Трек 6 отсутствует в базе данных
Трек 7 отсутствует в базе данных
Трек 8 отсутствует в базе данных
Трек 9 отсутствует в базе данных
Трек 10 отсутствует в базе данных
Трек 11 отсутствует в базе данных
Трек 12 отсутствует в базе данных

Ни одного трека нет в базе AccurateRip

Конец отчёта

---- CUETools DB Plugin V2.1.6

[CTDB TOCID: AhMoOOXeI4Dzcme.n_2S.mzS7sY-] disk not present in database
Submit result: AhMoOOXeI4Dzcme.n_2S.mzS7sY- has been uploaded


Disaster of Reality


Top
 Profile  
 
 
PostPosted: 19 Feb 2017 
консэрваторъ
User avatar
Joined: 11 Aug 2007
Posts: 17810
Lоcаtion: Псков
Age: 47
Name: Сергей
В очередь, отпишусь обязательно... чего-то я даже не успеваю архивы распаковывать... но это и хорошо... :oops:

_________________
THRASH 'EM ALL


Top
 Profile E-mail  
 
 
PostPosted: 19 Feb 2017 
Анатолий
User avatar
Joined: 18 Oct 2008
Posts: 4216
Lоcаtion: Армавир
Age: 44
Name: Анатолий
Знаю конечно эту бригаду.

Не сказать что являюсь её поклонником, но так на досуге слушивал.

Первый, чисто Hardcore'вый не очень нравится. Дальше чуть лучше.

Послушал первую композицию. Ну так... можно будет скачать.

Спасибо за возможность ознакомиться! :thanx: :true:


Top
 Profile E-mail  
 
 
PostPosted: 19 Feb 2017 
Рарник и трушник
User avatar
Joined: 25 Dec 2009
Posts: 9746
Lоcаtion: Москва
Age: 56
Name: Виталий
А я как раз по первому альбому запомнил команду, помню покатило тогда. :pardon:
Спасиб Сергей, качну полюбасу! :thanx:


Top
 Profile  
 
 
PostPosted: 19 Feb 2017 
Прокъмитолист
User avatar
Joined: 12 Aug 2007
Posts: 6878
Lоcаtion: Санктъ-Петербуркъ
Age: 54
Name: Олекъ
и от меня спасибо :thanx:

_________________
прокъметол - это музыко, от которово есть прок (ы)


Top
 Profile  
 
 
PostPosted: 19 Feb 2017 
консэрваторъ
User avatar
Joined: 11 Aug 2007
Posts: 17810
Lоcаtion: Псков
Age: 47
Name: Сергей
Не, один раз, один такой альбом я ещё могу послушать для расширения кругозору, но этожешь пурга, простите... :vic: делейт... :nea:

_________________
THRASH 'EM ALL


Top
 Profile E-mail  
 
 
PostPosted: 19 Feb 2017 
Генеральный thrasher
User avatar
Joined: 03 Oct 2008
Posts: 3751
Lоcаtion: Ханты-Мансийский АО
Age: 46
Name: Сергей
А я знал,что тебе не понравится,Серёга.Эта мешанина из трэша,кроссовера и краста придётся по душе тем,кто любит коллективы наподобие Hellbastard,Energetic Krusher etc.


Top
 Profile  
 
 
PostPosted: 19 Feb 2017 
консэрваторъ
User avatar
Joined: 11 Aug 2007
Posts: 17810
Lоcаtion: Псков
Age: 47
Name: Сергей
Тут ещё у вокалиста явно бронхит... :vic:

_________________
THRASH 'EM ALL


Top
 Profile E-mail  
 
 
PostPosted: 19 Feb 2017 
Генеральный thrasher
User avatar
Joined: 03 Oct 2008
Posts: 3751
Lоcаtion: Ханты-Мансийский АО
Age: 46
Name: Сергей
Серёг,я ж тебе написал...Иди и послушай Abduction!


Top
 Profile  
 
 
PostPosted: 19 Feb 2017 
консэрваторъ
User avatar
Joined: 11 Aug 2007
Posts: 17810
Lоcаtion: Псков
Age: 47
Name: Сергей
В очереди впереди был ДэдлиМош, пошли в тему...

_________________
THRASH 'EM ALL


Top
 Profile E-mail  
 
Display posts from previous:  Sort by  
Post new topic Reply to topic  [ 10 posts ] 

All times are UTC + 3 hours


Who is online

Users browsing this forum: No registered users and 1 guest


You cannot post new topics in this forum
You cannot reply to topics in this forum
You cannot edit your posts in this forum
You cannot delete your posts in this forum

Search for:
Яндекс.Метрика
Powered by phpBB © 2000, 2002, 2005, 2007 phpBB Group