\m/ 80's metal \m/

Информационно-аналитический форум "80 см пыли" (In Search We Trust) "У нас никто никуда не спешит"
Me For You - http://me-4u.com
It is currently 19 Jan 2021

All times are UTC + 3 hours

Spoiler
Chat - temporary registration for foreign users (please leave your application here)







Post new topic Reply to topic  [ 10 posts ] 
Author Message
 
PostPosted: 24 Oct 2016 
5-speed satisfactor
User avatar
Joined: 16 Feb 2009
Posts: 3906
Lоcаtion: New York, USA
Age: 42
Name: Leonid
Подарили

Image

    1. Recarbonized - 04:07
    2. Hypnotic Aim - 01:44
    3. Euthanasia - 03:33
    4. Blinded of the Veil - 03:28
    5. Syndrome - 02:10
    6. Reflections of the Dark - 02:38
    7. Third Eye - 02:14
    8. Purified (From the Sulfer) - 03:32
    9. For the Security - 01:58
    10. Monument - 02:51

    TPT: 28:15

https://yadi.sk/d/22NUc-hyxSXWz

log
Exact Audio Copy V1.0 beta 3 from 29. August 2011

EAC extraction logfile from 24. October 2016, 9:53

Carbonized / For The Security

Used drive : _NEC DVD_RW ND-3540A Adapter: 3 ID: 0

Read mode : Secure
Utilize accurate stream : Yes
Defeat audio cache : Yes
Make use of C2 pointers : No

Read offset correction : 48
Overread into Lead-In and Lead-Out : No
Fill up missing offset samples with silence : Yes
Delete leading and trailing silent blocks : No
Null samples used in CRC calculations : Yes
Used interface : Native Win32 interface for Win NT & 2000

Used output format : Internal WAV Routines
Sample format : 44.100 Hz; 16 Bit; Stereo


TOC of the extracted CD

Track | Start | Length | Start sector | End sector
---------------------------------------------------------
1 | 0:00.32 | 4:07.28 | 32 | 18584
2 | 4:07.60 | 1:43.22 | 18585 | 26331
3 | 5:51.07 | 3:33.05 | 26332 | 42311
4 | 9:24.12 | 3:28.25 | 42312 | 57936
5 | 12:52.37 | 2:09.63 | 57937 | 67674
6 | 15:02.25 | 2:37.72 | 67675 | 79521
7 | 17:40.22 | 2:13.60 | 79522 | 89556
8 | 19:54.07 | 3:32.35 | 89557 | 105491
9 | 23:26.42 | 1:57.63 | 105492 | 114329
10 | 25:24.30 | 2:51.27 | 114330 | 127181


Range status and errors

Selected range

Filename C:\cds\Carbonized\Carbonized - For The Security.wav

Peak level 97.2 %
Extraction speed 6.0 X
Range quality 100.0 %
Copy CRC 635B168C
Copy OK

No errors occurred

End of status report

==== Log checksum 1F3042577C9766C4AA64E37D36DE8053DE5133D636BE1648C91F1F742FDC89B9 ====

------------------------------------------------------------

Exact Audio Copy V1.0 beta 3 from 29. August 2011

EAC extraction logfile from 24. October 2016, 9:53

Carbonized / For The Security

Used drive : _NEC DVD_RW ND-3540A Adapter: 3 ID: 0

Read mode : Secure
Utilize accurate stream : Yes
Defeat audio cache : Yes
Make use of C2 pointers : No

Read offset correction : 48
Overread into Lead-In and Lead-Out : No
Fill up missing offset samples with silence : Yes
Delete leading and trailing silent blocks : No
Null samples used in CRC calculations : Yes
Used interface : Native Win32 interface for Win NT & 2000

Used output format : Internal WAV Routines
Sample format : 44.100 Hz; 16 Bit; Stereo


TOC of the extracted CD

Track | Start | Length | Start sector | End sector
---------------------------------------------------------
1 | 0:00.32 | 4:07.28 | 32 | 18584
2 | 4:07.60 | 1:43.22 | 18585 | 26331
3 | 5:51.07 | 3:33.05 | 26332 | 42311
4 | 9:24.12 | 3:28.25 | 42312 | 57936
5 | 12:52.37 | 2:09.63 | 57937 | 67674
6 | 15:02.25 | 2:37.72 | 67675 | 79521
7 | 17:40.22 | 2:13.60 | 79522 | 89556
8 | 19:54.07 | 3:32.35 | 89557 | 105491
9 | 23:26.42 | 1:57.63 | 105492 | 114329
10 | 25:24.30 | 2:51.27 | 114330 | 127181


Range status and errors

Selected range

Filename C:\cds\Carbonized\Carbonized - For The Security.wav

Peak level 97.2 %
Extraction speed 6.0 X
Range quality 100.0 %
Copy CRC 635B168C
Copy OK

No errors occurred

End of status report

==== Log checksum 1F3042577C9766C4AA64E37D36DE8053DE5133D636BE1648C91F1F742FDC89B9 ====

cue
REM DISCID 81069F0A
REM COMMENT "ExactAudioCopy v1.0b3"
PERFORMER "Carbonized"
TITLE "For The Security"
FILE "Carbonized - For The Security.wav" WAVE
TRACK 01 AUDIO
TITLE "Track01"
PERFORMER "Carbonized"
INDEX 00 00:00:00
INDEX 01 00:00:32
TRACK 02 AUDIO
TITLE "Track02"
PERFORMER "Carbonized"
INDEX 00 04:07:17
INDEX 01 04:07:60
TRACK 03 AUDIO
TITLE "Track03"
PERFORMER "Carbonized"
INDEX 00 05:50:35
INDEX 01 05:51:07
TRACK 04 AUDIO
TITLE "Track04"
PERFORMER "Carbonized"
INDEX 00 09:22:55
INDEX 01 09:24:12
TRACK 05 AUDIO
TITLE "Track05"
PERFORMER "Carbonized"
INDEX 01 12:52:37
TRACK 06 AUDIO
TITLE "Track06"
PERFORMER "Carbonized"
INDEX 00 14:59:45
INDEX 01 15:02:25
TRACK 07 AUDIO
TITLE "Track07"
PERFORMER "Carbonized"
INDEX 00 17:39:32
INDEX 01 17:40:22
TRACK 08 AUDIO
TITLE "Track08"
PERFORMER "Carbonized"
INDEX 00 19:52:65
INDEX 01 19:54:07
TRACK 09 AUDIO
TITLE "Track09"
PERFORMER "Carbonized"
INDEX 00 23:25:52
INDEX 01 23:26:42
TRACK 10 AUDIO
TITLE "Track10"
PERFORMER "Carbonized"
INDEX 00 25:23:17
INDEX 01 25:24:30

_________________
Death rules! Metal to all who oppose!


Top
 Profile  
 
 
PostPosted: 24 Oct 2016 
Рарник и трушник
User avatar
Joined: 25 Dec 2009
Posts: 9239
Lоcаtion: Москва
Age: 55
Name: Виталий
Спасибо!!! :thanx:


Top
 Profile  
 
 
PostPosted: 24 Oct 2016 
Доктор энтомологии
User avatar
Joined: 22 Jan 2009
Posts: 10370
Lоcаtion: Даугавпилс
Age: 45
Name: Алексей
Клёвый грайнд :lob:


Top
 Profile  
 
 
PostPosted: 24 Oct 2016 
Хиппей (support team)
User avatar
Joined: 30 Jul 2007
Posts: 119816
Lоcаtion: Киев (Kyiv, UA)
Age: 47
Name: Andrey
:thanx: Классик0 :kro:

mirror: iFolder l Narod l M-Cloud

_________________


Top
 Profile E-mail  
 
 
PostPosted: 24 Oct 2016 
5-speed satisfactor
User avatar
Joined: 16 Feb 2009
Posts: 3906
Lоcаtion: New York, USA
Age: 42
Name: Leonid
Я ваще про эту группировку не слышал. Скачал, но не прослухал.

_________________
Death rules! Metal to all who oppose!


Top
 Profile  
 
 
PostPosted: 24 Oct 2016 
Хиппей (support team)
User avatar
Joined: 30 Jul 2007
Posts: 119816
Lоcаtion: Киев (Kyiv, UA)
Age: 47
Name: Andrey
Группа прежде всего знатна демкой 90-го года и вот этим альбомом.
Дальше как-то выпала из тренда. Или сам дэз-метол выпал из тренда, и..
Смотрю, чейчас, и хихикаю - третий альбом у группы был явно уже форматным для форума :crazy:

_________________


Top
 Profile E-mail  
 
 
PostPosted: 24 Oct 2016 
Доктор энтомологии
User avatar
Joined: 22 Jan 2009
Posts: 10370
Lоcаtion: Даугавпилс
Age: 45
Name: Алексей
Мне Дисгармонизация у них очень нравится - эдакий экстремальный вариант параноидального Воивода :lob:


Top
 Profile  
 
 
PostPosted: 25 Oct 2016 
спирт 100%
User avatar
Joined: 22 Sep 2008
Posts: 4611
Age: 49
Name: Саня
:thanx: Спасибо!


Top
 Profile  
 
 
PostPosted: 26 Oct 2016 
Персональный статус
User avatar
Joined: 04 Mar 2012
Posts: 239
Lоcаtion: Саратов
Name: Василий
:thanx:


Top
 Profile E-mail  
 
 
PostPosted: 26 Oct 2016 
А может смените мне статус?..
User avatar
Joined: 02 Sep 2007
Posts: 626
Lоcаtion: г.Москва, Юго-Запад
Age: 51
Name: Сергей
Ух ... Какая тема.
:thanx:


Top
 Profile  
 
Display posts from previous:  Sort by  
Post new topic Reply to topic  [ 10 posts ] 

All times are UTC + 3 hours


Who is online

Users browsing this forum: No registered users and 1 guest


You cannot post new topics in this forum
You cannot reply to topics in this forum
You cannot edit your posts in this forum
You cannot delete your posts in this forum
You cannot post attachments in this forum

Search for:
Яндекс.Метрика
Powered by phpBB © 2000, 2002, 2005, 2007 phpBB Group