\m/ 80's metal \m/

Информационно-аналитический форум "80 см пыли" (In Search We Trust) "У нас никто никуда не спешит"
Me For You - http://me-4u.com
It is currently 01 Dec 2021

All times are UTC + 3 hours

Spoiler
Chat - temporary registration for foreign users (please leave your application here)







Post new topic Reply to topic  [ 71 posts ]  Go to page Previous  1, 2, 3, 4
Author Message
 
PostPosted: 25 Sep 2016 
5-speed satisfactor
User avatar
Joined: 16 Feb 2009
Posts: 3961
Lоcаtion: New York, USA
Age: 43
Name: Leonid
Image

Страна: Германия
Группа: C.O.E.
Год: 2000
Альбом: Metal

    1. Iron Sword - 04:13
    2. Warrior - 04:06
    3. Open the Gate (instrumental) - 00:39
    4. Stargate - 04:52
    5. The Die Is Cast - 03:25
    6. The Tale of Baba Yaga - (instrumental) - 02:06
    7. Burning the Witches - 04:46
    8. Have a Drink on Me - 03:49
    9. Fate Keeper - 04:44
    10. Slavian Symphony - 07:01
    11. Paradise City (Guns N' Roses cover) - 03:36
    12. Holiday in Hell - 04:10

    TPT: 47:27

http://www.metal-archives.com/albums/C.O.E/Metal/15226

До 2око октября https://we.tl/ExSIpFSGjQ

log
Exact Audio Copy V1.1 from 23. June 2015

EAC extraction logfile from 2. May 2016, 18:47

COE / -

Used drive : SlimtypeDVD A DL8A4SH Adapter: 1 ID: 0

Read mode : Secure
Utilize accurate stream : Yes
Defeat audio cache : Yes
Make use of C2 pointers : No

Read offset correction : 0
Overread into Lead-In and Lead-Out : No
Fill up missing offset samples with silence : Yes
Delete leading and trailing silent blocks : No
Null samples used in CRC calculations : Yes
Used interface : Native Win32 interface for Win NT & 2000

Used output format : Internal WAV Routines
Sample format : 44.100 Hz; 16 Bit; Stereo


TOC of the extracted CD

Track | Start | Length | Start sector | End sector
---------------------------------------------------------
1 | 0:00.01 | 4:13.47 | 1 | 19022
2 | 4:13.48 | 4:06.09 | 19023 | 37481
3 | 8:19.57 | 0:39.64 | 37482 | 40470
4 | 8:59.46 | 4:52.44 | 40471 | 62414
5 | 13:52.15 | 3:25.41 | 62415 | 77830
6 | 17:17.56 | 2:06.73 | 77831 | 87353
7 | 19:24.54 | 4:46.22 | 87354 | 108825
8 | 24:11.01 | 3:49.07 | 108826 | 126007
9 | 28:00.08 | 4:44.68 | 126008 | 147375
10 | 32:45.01 | 7:01.17 | 147376 | 178967
11 | 39:46.18 | 3:36.68 | 178968 | 195235
12 | 43:23.11 | 4:10.31 | 195236 | 214016


Range status and errors

Selected range

Filename F:\CD rips 2016\COE.wav

Peak level 99.6 %
Extraction speed 3.0 X
Range quality 99.9 %
Copy CRC C51A6F3E
Copy OK

No errors occurred

End of status report

cue
REM DISCID 9F0B250C
REM COMMENT "ExactAudioCopy v1.1"
PERFORMER "C.O.E"
TITLE "Metal"
FILE "C.O.E - Metal.wav" WAVE
TRACK 01 AUDIO
TITLE "Iron Sword"
PERFORMER "C.O.E"
FLAGS DCP
INDEX 00 00:00:00
INDEX 01 00:00:01
TRACK 02 AUDIO
TITLE "Warrior"
PERFORMER "C.O.E"
FLAGS DCP
INDEX 01 04:13:48
TRACK 03 AUDIO
TITLE "Open The Gate"
PERFORMER "C.O.E"
INDEX 01 08:19:57
TRACK 04 AUDIO
TITLE "Stargate"
PERFORMER "C.O.E"
FLAGS DCP
INDEX 01 08:59:46
TRACK 05 AUDIO
TITLE "The Die Is Cast"
PERFORMER "C.O.E"
FLAGS DCP
INDEX 01 13:52:15
TRACK 06 AUDIO
TITLE "The Tale Of Baba Yaga"
PERFORMER "C.O.E"
FLAGS DCP
INDEX 01 17:17:56
TRACK 07 AUDIO
TITLE "Burning The Witches"
PERFORMER "C.O.E"
FLAGS DCP
INDEX 01 19:24:54
TRACK 08 AUDIO
TITLE "Have A Drink On Me"
PERFORMER "C.O.E"
FLAGS DCP
INDEX 01 24:11:01
TRACK 09 AUDIO
TITLE "Fate Keeper"
PERFORMER "C.O.E"
FLAGS DCP
INDEX 01 28:00:08
TRACK 10 AUDIO
TITLE "Slavian Symphony"
PERFORMER "C.O.E"
FLAGS DCP
INDEX 01 32:45:01
TRACK 11 AUDIO
TITLE "Paradise City"
PERFORMER "C.O.E"
FLAGS DCP
INDEX 01 39:46:18
TRACK 12 AUDIO
TITLE "Holiday In Hell"
PERFORMER "C.O.E"
FLAGS DCP
INDEX 01 43:23:11

covers
Image

Image

Image

Image

Image

Image

Image

_________________
Death rules! Metal to all who oppose!


Top
 Profile  
 
 
PostPosted: 30 Sep 2016 
Metal Collector
User avatar
Joined: 16 Nov 2008
Posts: 1377
Lоcаtion: Химки
Age: 38
Name: Андрей
Ещё интересное видео нашёл на канале Шелко - кавер на известный хит The Cranberries - Zombie.



Top
 Profile E-mail  
 
 
PostPosted: 01 Oct 2016 
Хиппей (support team)
User avatar
Joined: 30 Jul 2007
Posts: 123186
Lоcаtion: Киев (Kyiv, UA)
Age: 48
Name: Andrey
EG Power wrote:
speed'n'power.com

:thanx: Не знал, о такой сайте. Но дизайн очень знаком :crazy:

_________________


Top
 Profile E-mail  
 
 
PostPosted: 01 Oct 2016 
Хиппей (support team)
User avatar
Joined: 30 Jul 2007
Posts: 123186
Lоcаtion: Киев (Kyiv, UA)
Age: 48
Name: Andrey
Ага, нет, был всё же у нас... :arrow: viewtopic.php?f=29&t=1232 :oops:

_________________


Top
 Profile E-mail  
 
 
PostPosted: 01 Oct 2016 
Хиппей (support team)
User avatar
Joined: 30 Jul 2007
Posts: 123186
Lоcаtion: Киев (Kyiv, UA)
Age: 48
Name: Andrey
А чем? :scratch:

Сибилянтами, видимо :vic:

:crazy:

_________________


Top
 Profile E-mail  
 
 
PostPosted: 01 Oct 2016 
Хиппей (support team)
User avatar
Joined: 30 Jul 2007
Posts: 123186
Lоcаtion: Киев (Kyiv, UA)
Age: 48
Name: Andrey
https://www.facebook.com/pg/COE.Metal/app/178091127385/

Вот тут в треклисте внизу можно один трек прослушать (4-й снизу). По музыке альтернативой какой-то отдаёт сильно, но тем не менее.

Это ж кавер на известную песню :kro:


_________________


Top
 Profile E-mail  
 
 
PostPosted: 01 Oct 2016 
Хиппей (support team)
User avatar
Joined: 30 Jul 2007
Posts: 123186
Lоcаtion: Киев (Kyiv, UA)
Age: 48
Name: Andrey
Terrion wrote:
видео нашёл на канале Шелко - кавер на известный хит The Cranberries - Zombie.

Ага. хорошо вышло. Душевно.
Видеоряд не смотрел.

_________________


Top
 Profile E-mail  
 
 
PostPosted: 01 Oct 2016 
Рарник и трушник
User avatar
Joined: 25 Dec 2009
Posts: 9702
Lоcаtion: Москва
Age: 56
Name: Виталий
Scatterbrain wrote:
Видеоряд не смотрел.

По вполне понятным причинам. Пиндосы Украине схожую судьбу готовили... :(


Top
 Profile  
 
 
PostPosted: 02 Oct 2016 
Хиппей (support team)
User avatar
Joined: 30 Jul 2007
Posts: 123186
Lоcаtion: Киев (Kyiv, UA)
Age: 48
Name: Andrey
:crazy:

Какую же?
Я видео вообще редко смотрю. Даже в футболе. А что тута было и есть, не глядел.
Поговорим о том?
Я, не смотря, а ты, глядя? :kro:

_________________


Top
 Profile E-mail  
 
 
PostPosted: 02 Oct 2016 
Рарник и трушник
User avatar
Joined: 25 Dec 2009
Posts: 9702
Lоcаtion: Москва
Age: 56
Name: Виталий
Scatterbrain wrote:
Какую же?

По сербскому сценарию... :(


Top
 Profile  
 
 
PostPosted: 03 Oct 2016 
консэрваторъ
User avatar
Joined: 11 Aug 2007
Posts: 17810
Lоcаtion: Псков
Age: 47
Name: Сергей
Ключевые посты про Angel Dust отделены в соответствующую тему... :arrov: viewtopic.php?f=72&t=9727

_________________
THRASH 'EM ALL


Top
 Profile E-mail  
 
 
PostPosted: 06 Oct 2016 
Я набрал 1000 сообщений!
User avatar
Joined: 22 Jun 2011
Posts: 1617
Lоcаtion: Донецк.
Age: 51
Name: Сергей
https://www.facebook.com/pg/COE.Metal/app/178091127385/

Вот тут в треклисте внизу можно один трек прослушать (4-й снизу). По музыке альтернативой какой-то отдаёт сильно, но тем не менее.

Это ж кавер на известную песню :kro:

ты-ты-тыры тыры-пыры это ж Джорджио Мородер написал :benya:


Top
 Profile E-mail  
 
Display posts from previous:  Sort by  
Post new topic Reply to topic  [ 71 posts ]  Go to page Previous  1, 2, 3, 4

All times are UTC + 3 hours


Who is online

Users browsing this forum: No registered users and 1 guest


You cannot post new topics in this forum
You cannot reply to topics in this forum
You cannot edit your posts in this forum
You cannot delete your posts in this forum

Search for:
Яндекс.Метрика
Powered by phpBB © 2000, 2002, 2005, 2007 phpBB Group