\m/ 80's metal \m/

Информационно-аналитический форум "80 см пыли" (In Search We Trust) "У нас никто никуда не спешит"
Me For You - http://me-4u.com
It is currently 23 Jan 2021

All times are UTC + 3 hours

Spoiler
Chat - temporary registration for foreign users (please leave your application here)







Post new topic Reply to topic  [ 4 posts ] 
Author Message
 
PostPosted: 31 Jul 2016 
Работнечег
User avatar
Joined: 28 Aug 2007
Posts: 6363
Lоcаtion: г. Москва
Age: 31
Name: Дима
Image

Year: 2014
Label: EMI Music Malaysia
Genre: Thrash Metal
Coutry: Malaysia
Format: Flac + Log + Cue + Covers
Size: 529 Mb

Tracklist:
1. I Do Unicorn 06:23
2. Rise 07:18
3. Saviour 06:27
4. On The 06:07
5. Song 3 01:33
6. Dying to Live 11:00
7. Disable 04:29
8. Pip 05:25
9. - 02:02
10. Error 05:13
11. Euthemia (live) 00:50
12. Journey (live) 05:45
13. Misty (live) 06:13
14. Merceda (raw) 00:33
15. Prophecy (raw) 03:38
16. Sanity (raw) 04:00

LOG
Exact Audio Copy V0.99 prebeta 5 from 4. May 2009

EAC extraction logfile from 28. June 2016, 20:37

Cromok / Untitled + Raw

Used drive : PIONEER DVD-RW DVR-221 Adapter: 2 ID: 1

Read mode : Secure
Utilize accurate stream : Yes
Defeat audio cache : Yes
Make use of C2 pointers : No

Read offset correction : 6
Overread into Lead-In and Lead-Out : No
Fill up missing offset samples with silence : Yes
Delete leading and trailing silent blocks : No
Null samples used in CRC calculations : Yes
Used interface : Native Win32 interface for Win NT & 2000

Used output format : User Defined Encoder
Selected bitrate : 32 kBit/s
Quality : High
Add ID3 tag : No
Command line compressor : C:\Program Files\Exact Audio Copy\Flac\flac.exe
Additional command line options : -6 -V %s


TOC of the extracted CD

Track | Start | Length | Start sector | End sector
---------------------------------------------------------
1 | 0:00.00 | 6:23.32 | 0 | 28756
2 | 6:23.32 | 7:17.58 | 28757 | 61589
3 | 13:41.15 | 6:26.67 | 61590 | 90606
4 | 20:08.07 | 6:06.58 | 90607 | 118114
5 | 26:14.65 | 1:33.04 | 118115 | 125093
6 | 27:47.69 | 11:00.35 | 125094 | 174628
7 | 38:48.29 | 4:29.05 | 174629 | 194808
8 | 43:17.34 | 5:25.27 | 194809 | 219210
9 | 48:42.61 | 2:02.29 | 219211 | 228389
10 | 50:45.15 | 5:13.22 | 228390 | 251886
11 | 55:58.37 | 0:50.16 | 251887 | 255652
12 | 56:48.53 | 5:45.23 | 255653 | 281550
13 | 62:34.01 | 6:13.18 | 281551 | 309543
14 | 68:47.19 | 0:33.02 | 309544 | 312020
15 | 69:20.21 | 3:38.37 | 312021 | 328407
16 | 72:58.58 | 3:59.64 | 328408 | 346396


Range status and errors

Selected range

Filename D:\Музыка\Lossless\Cromok - Untitled + Raw (2014)\Cromok - Untitled + Raw.wav

Peak level 99.9 %
Range quality 100.0 %
Copy CRC F7342470
Copy OK

No errors occurred


AccurateRip summary

Track 1 not present in database
Track 2 not present in database
Track 3 not present in database
Track 4 not present in database
Track 5 not present in database
Track 6 not present in database
Track 7 not present in database
Track 8 not present in database
Track 9 not present in database
Track 10 not present in database
Track 11 not present in database
Track 12 not present in database
Track 13 not present in database
Track 14 not present in database
Track 15 not present in database
Track 16 not present in database

None of the tracks are present in the AccurateRip database

End of status report


CUE
REM GENRE "Thrash Metal"
REM DATE 2014
REM DISCID E1120A10
REM COMMENT "ExactAudioCopy v0.99pb5"
PERFORMER "Cromok"
TITLE "Untitled + Raw"
FILE "Cromok - Untitled + Raw.flac" WAVE
TRACK 01 AUDIO
TITLE "I Do"
PERFORMER "Cromok"
INDEX 01 00:00:00
TRACK 02 AUDIO
TITLE "Rise"
PERFORMER "Cromok"
INDEX 00 06:20:69
INDEX 01 06:23:32
TRACK 03 AUDIO
TITLE "Saviour"
PERFORMER "Cromok"
INDEX 00 13:39:15
INDEX 01 13:41:15
TRACK 04 AUDIO
TITLE "On The"
PERFORMER "Cromok"
INDEX 01 20:08:07
TRACK 05 AUDIO
TITLE "Song"
PERFORMER "Cromok"
INDEX 00 26:12:71
INDEX 01 26:14:65
TRACK 06 AUDIO
TITLE "Dying To Live"
PERFORMER "Cromok"
INDEX 00 27:46:41
INDEX 01 27:47:69
TRACK 07 AUDIO
TITLE "Disable"
PERFORMER "Cromok"
INDEX 00 38:46:29
INDEX 01 38:48:29
TRACK 08 AUDIO
TITLE "Pip"
PERFORMER "Cromok"
INDEX 01 43:17:34
TRACK 09 AUDIO
TITLE "Untitled"
PERFORMER "Cromok"
INDEX 01 48:42:61
TRACK 10 AUDIO
TITLE "Error"
PERFORMER "Cromok"
INDEX 00 50:42:65
INDEX 01 50:45:15
TRACK 11 AUDIO
TITLE "Euthemia (Live)"
PERFORMER "Cromok"
INDEX 00 55:57:10
INDEX 01 55:58:37
TRACK 12 AUDIO
TITLE "Journey (Live)"
PERFORMER "Cromok"
INDEX 01 56:48:53
TRACK 13 AUDIO
TITLE "Misty (Live)"
PERFORMER "Cromok"
INDEX 01 62:34:01
TRACK 14 AUDIO
TITLE "Merceda (Raw)"
PERFORMER "Cromok"
INDEX 00 68:46:03
INDEX 01 68:47:19
TRACK 15 AUDIO
TITLE "Prophecy (Raw)"
PERFORMER "Cromok"
INDEX 01 69:20:21
TRACK 16 AUDIO
TITLE "Sanity (Raw)"
PERFORMER "Cromok"
INDEX 01 72:58:58


Yadi


Top
 Profile E-mail  
 
 
PostPosted: 01 Aug 2016 
Хиппей (support team)
User avatar
Joined: 30 Jul 2007
Posts: 119845
Lоcаtion: Киев (Kyiv, UA)
Age: 47
Name: Andrey
:thanx:

_________________


Top
 Profile E-mail  
 
 
PostPosted: 01 Aug 2016 
Прокъмитолист
User avatar
Joined: 12 Aug 2007
Posts: 6794
Lоcаtion: Санктъ-Петербуркъ
Age: 53
Name: Олекъ
:thanx:

_________________
прокъметол - это музыко, от которово есть прок (ы)


Top
 Profile  
 
 
PostPosted: 01 Aug 2016 
спирт 100%
User avatar
Joined: 22 Sep 2008
Posts: 4613
Age: 49
Name: Саня
:thanx: Спасибо!


Top
 Profile  
 
Display posts from previous:  Sort by  
Post new topic Reply to topic  [ 4 posts ] 

All times are UTC + 3 hours


Who is online

Users browsing this forum: No registered users and 1 guest


You cannot post new topics in this forum
You cannot reply to topics in this forum
You cannot edit your posts in this forum
You cannot delete your posts in this forum
You cannot post attachments in this forum

Search for:
Яндекс.Метрика
Powered by phpBB © 2000, 2002, 2005, 2007 phpBB Group