\m/ 80's metal \m/

Информационно-аналитический форум "80 см пыли" (In Search We Trust) "У нас никто никуда не спешит"
Me For You - http://me-4u.com
It is currently 19 Jan 2021

All times are UTC + 3 hours

Spoiler
Chat - temporary registration for foreign users (please leave your application here)







Post new topic Reply to topic  [ 29 posts ]  Go to page Previous  1, 2
Author Message
 
PostPosted: 29 Apr 2016 
5-speed satisfactor
User avatar
Joined: 16 Feb 2009
Posts: 3906
Lоcаtion: New York, USA
Age: 42
Name: Leonid
Image

Это не первопресс. Это Европейское издание 1988ого года.

Первопресс был выпущен на COMBAT label в США в 1987. Но звук там значительно уступает Европейскому изданию 1988oго года. На COMBAT-e звук AAD (analog recording, analog mix, digital transfer), в то время как на Европейском - ADD (Analog recording, digital mix, digital transfer).

Чтоб восстановить образ, надо отпилить 11790 семплов от начала. Рип делал давно.

https://we.tl/WAYGG1t3TC

Image ImageImage

log
Exact Audio Copy V0.99 prebeta 5 from 4. May 2009

EAC extraction logfile from 29. December 2015, 10:35

Celtic Frost / To Mega Therion

Used drive : PLEXTOR DVDR PX-760A Adapter: 4 ID: 0

Read mode : Secure
Utilize accurate stream : Yes
Defeat audio cache : Yes
Make use of C2 pointers : No

Read offset correction : 30
Overread into Lead-In and Lead-Out : Yes
Fill up missing offset samples with silence : Yes
Delete leading and trailing silent blocks : No
Null samples used in CRC calculations : No
Used interface : Installed external ASPI interface

Used output format : Internal WAV Routines
Sample format : 44.100 Hz; 16 Bit; Stereo


TOC of the extracted CD

Track | Start | Length | Start sector | End sector
---------------------------------------------------------
1 | 0:00.00 | 1:02.72 | 0 | 4721
2 | 1:02.72 | 3:26.30 | 4722 | 20201
3 | 4:29.27 | 4:05.60 | 20202 | 38636
4 | 8:35.12 | 5:47.20 | 38637 | 64681
5 | 14:22.32 | 4:30.63 | 64682 | 84994
6 | 18:53.20 | 4:38.05 | 84995 | 105849
7 | 23:31.25 | 3:08.00 | 105850 | 119949
8 | 26:39.25 | 5:08.52 | 119950 | 143101
9 | 31:48.02 | 2:33.33 | 143102 | 154609
10 | 34:21.35 | 6:01.72 | 154610 | 181756


Range status and errors

Selected range

Filename C:\Documents and Settings\Leonid\My Documents\My Music\Celtic Frost\To Mega Therion\Celtic Frost - To Mega Therion.wav

Peak level 85.9 %
Range quality 100.0 %
Copy CRC F2EA7381
Copy OK

No errors occurred

End of status report

------------------------------------------------------------

Exact Audio Copy V0.99 prebeta 5 from 4. May 2009

EAC extraction logfile from 29. December 2015, 10:41

Celtic Frost / To Mega Therion

Used drive : PLEXTOR DVDR PX-760A Adapter: 4 ID: 0

Read mode : Secure
Utilize accurate stream : Yes
Defeat audio cache : Yes
Make use of C2 pointers : No

Read offset correction : 11202
Overread into Lead-In and Lead-Out : Yes
Fill up missing offset samples with silence : Yes
Delete leading and trailing silent blocks : No
Null samples used in CRC calculations : No
Used interface : Installed external ASPI interface
Gap handling : Appended to next track

Used output format : Internal WAV Routines
Sample format : 44.100 Hz; 16 Bit; Stereo


TOC of the extracted CD

Track | Start | Length | Start sector | End sector
---------------------------------------------------------
1 | 0:00.00 | 1:02.72 | 0 | 4721
2 | 1:02.72 | 3:26.30 | 4722 | 20201
3 | 4:29.27 | 4:05.60 | 20202 | 38636
4 | 8:35.12 | 5:47.20 | 38637 | 64681
5 | 14:22.32 | 4:30.63 | 64682 | 84994
6 | 18:53.20 | 4:38.05 | 84995 | 105849
7 | 23:31.25 | 3:08.00 | 105850 | 119949
8 | 26:39.25 | 5:08.52 | 119950 | 143101
9 | 31:48.02 | 2:33.33 | 143102 | 154609
10 | 34:21.35 | 6:01.72 | 154610 | 181756


Track 10

Filename C:\Documents and Settings\Leonid\My Documents\My Music\Celtic Frost\To Mega Therion\10. Necromantical Screams.wav

Peak level 84.9 %
Track quality 99.9 %
Copy CRC 6C2EAC04
Copy OK

No errors occurred

End of status report

------------------------------------------------------------

Exact Audio Copy V0.99 prebeta 5 from 4. May 2009

EAC extraction logfile from 29. December 2015, 10:42

Celtic Frost / To Mega Therion

Used drive : PLEXTOR DVDR PX-760A Adapter: 4 ID: 0

Read mode : Secure
Utilize accurate stream : Yes
Defeat audio cache : Yes
Make use of C2 pointers : No

Read offset correction : -11760
Overread into Lead-In and Lead-Out : Yes
Fill up missing offset samples with silence : Yes
Delete leading and trailing silent blocks : No
Null samples used in CRC calculations : No
Used interface : Installed external ASPI interface
Gap handling : Appended to next track

Used output format : Internal WAV Routines
Sample format : 44.100 Hz; 16 Bit; Stereo


TOC of the extracted CD

Track | Start | Length | Start sector | End sector
---------------------------------------------------------
1 | 0:00.00 | 1:02.72 | 0 | 4721
2 | 1:02.72 | 3:26.30 | 4722 | 20201
3 | 4:29.27 | 4:05.60 | 20202 | 38636
4 | 8:35.12 | 5:47.20 | 38637 | 64681
5 | 14:22.32 | 4:30.63 | 64682 | 84994
6 | 18:53.20 | 4:38.05 | 84995 | 105849
7 | 23:31.25 | 3:08.00 | 105850 | 119949
8 | 26:39.25 | 5:08.52 | 119950 | 143101
9 | 31:48.02 | 2:33.33 | 143102 | 154609
10 | 34:21.35 | 6:01.72 | 154610 | 181756


Track 1

Filename C:\Documents and Settings\Leonid\My Documents\My Music\Celtic Frost\To Mega Therion\01. Innocence And Wrath.wav

Pre-gap length 0:00:02.00

Missing samples
Peak level 83.4 %
Track quality 100.0 %
Copy CRC 71180F4C
Copy finished

There were errors

End of status report

_________________
Death rules! Metal to all who oppose!


Top
 Profile  
 
 
PostPosted: 02 May 2016 
5-speed satisfactor
User avatar
Joined: 16 Feb 2009
Posts: 3906
Lоcаtion: New York, USA
Age: 42
Name: Leonid






Всем здравия, с праздником!
Христос воскрес'е!!!!!!!!!!!!!!!

Image


А воскрес он после того, как дьявол на Гигеровской обложке Celtic Frost надругался над ним, используя его в качестве рогатки?

_________________
Death rules! Metal to all who oppose!


Top
 Profile  
 
 
PostPosted: 02 May 2016 
Хиппей (support team)
User avatar
Joined: 30 Jul 2007
Posts: 119809
Lоcаtion: Киев (Kyiv, UA)
Age: 47
Name: Andrey
Воскрес он, вроде, давно, но почему каждый год снова воскресает, но не приходит кушать паски и яйца со свечками?
Вот главный вопрос у поклонников.

_________________


Top
 Profile E-mail  
 
 
PostPosted: 03 May 2016 
Персональный статус
User avatar
Joined: 11 May 2011
Posts: 425
Lоcаtion: Omsk
Age: 30
Name: Alexander
Я что-то как ни пилил всё равно контрольные суммы не сходятся :vic:

_________________
Enigma, unholy, ungodly, commander of the regeneration
Insidious and caught, implored by disgrace
Inhumation... The burial of man
Confession... Unify all evil


Top
 Profile E-mail  
 
 
PostPosted: 03 May 2016 
Доктор энтомологии
User avatar
Joined: 22 Jan 2009
Posts: 10370
Lоcаtion: Даугавпилс
Age: 45
Name: Алексей
Cотона, он такой ;)


Top
 Profile  
 
 
PostPosted: 04 May 2016 
5-speed satisfactor
User avatar
Joined: 16 Feb 2009
Posts: 3906
Lоcаtion: New York, USA
Age: 42
Name: Leonid
Я что-то как ни пилил всё равно контрольные суммы не сходятся :vic:


С конца убери 11172 семпла. Но конец не влияет на прожигание. На контрольную сумму да.

_________________
Death rules! Metal to all who oppose!


Top
 Profile  
 
 
PostPosted: 04 May 2016 
Персональный статус
User avatar
Joined: 11 May 2011
Posts: 425
Lоcаtion: Omsk
Age: 30
Name: Alexander
Вот теперь сошлось, спасибо, Лёнь!

_________________
Enigma, unholy, ungodly, commander of the regeneration
Insidious and caught, implored by disgrace
Inhumation... The burial of man
Confession... Unify all evil


Top
 Profile E-mail  
 
 
PostPosted: 04 May 2016 
Хиппей (support team)
User avatar
Joined: 30 Jul 2007
Posts: 119809
Lоcаtion: Киев (Kyiv, UA)
Age: 47
Name: Andrey
Вот теперь сошлось, спасибо, Лёнь!

Сань, а можешь свой вариант уже готовый и нам залить? :kro:

_________________


Top
 Profile E-mail  
 
 
PostPosted: 04 May 2016 
5-speed satisfactor
User avatar
Joined: 16 Feb 2009
Posts: 3906
Lоcаtion: New York, USA
Age: 42
Name: Leonid
Да, можешь свой вариант залить для трудящихся?

_________________
Death rules! Metal to all who oppose!


Top
 Profile  
 
 
PostPosted: 04 May 2016 
Персональный статус
User avatar
Joined: 11 May 2011
Posts: 425
Lоcаtion: Omsk
Age: 30
Name: Alexander
Вот

_________________
Enigma, unholy, ungodly, commander of the regeneration
Insidious and caught, implored by disgrace
Inhumation... The burial of man
Confession... Unify all evil


Top
 Profile E-mail  
 
Display posts from previous:  Sort by  
Post new topic Reply to topic  [ 29 posts ]  Go to page Previous  1, 2

All times are UTC + 3 hours


Who is online

Users browsing this forum: No registered users and 1 guest


You cannot post new topics in this forum
You cannot reply to topics in this forum
You cannot edit your posts in this forum
You cannot delete your posts in this forum
You cannot post attachments in this forum

Search for:
Яндекс.Метрика
Powered by phpBB © 2000, 2002, 2005, 2007 phpBB Group