\m/ 80's metal \m/

Информационно-аналитический форум "80 см пыли" (In Search We Trust) "У нас никто никуда не спешит"
Me For You - http://me-4u.com
It is currently 24 Jan 2021

All times are UTC + 3 hours

Spoiler
Chat - temporary registration for foreign users (please leave your application here)







Post new topic Reply to topic  [ 4 posts ] 
Author Message
 
PostPosted: 12 Jan 2016 
Генеральный thrasher
User avatar
Joined: 03 Oct 2008
Posts: 3751
Lоcаtion: Ханты-Мансийский АО
Age: 45
Name: Сергей
Image

Year:1988 (2014 Re-Issue)
Style:Heavy Metal
Country:U.S.A.
Archive:Flac+Cue+Log+Scans
Size:356Mb
Source:my CD
Label:Divebomb Records

Tracklist:
01 The Voice Of The Cult 04:36
02 Live Hard 03:11
03 Chains Of Love 03:33
04 Share Yourself With Me 03:54
05 Fortune Teller 04:27
06 Child Of Evermore 04:28
07 Soldiers Of The Flame 03:13
08 Evil For Evil 04:17
09 Take Me Home 06:23
Bonus Tracks:
10 The Voice Of The Cult (Instrumental) 03:14
11 Evil For Evil (Instrumental) 03:04

"Cue"
REM GENRE "Heavy Metal"
REM DATE 2015
REM DISCID 9E0A5E0B
REM COMMENT "ExactAudioCopy v0.99pb5"
PERFORMER "Chastain"
TITLE "The Voice Of The Cult"
FILE "Chastain - The Voice Of The Cult.flac" WAVE
TRACK 01 AUDIO
TITLE "The Voice Of The Cult"
PERFORMER "Chastain"
INDEX 01 00:00:00
TRACK 02 AUDIO
TITLE "Live Hard"
PERFORMER "Chastain"
INDEX 01 04:35:42
TRACK 03 AUDIO
TITLE "Chains Of Love"
PERFORMER "Chastain"
INDEX 01 07:46:27
TRACK 04 AUDIO
TITLE "Share Yourself With Me"
PERFORMER "Chastain"
INDEX 01 11:19:11
TRACK 05 AUDIO
TITLE "Fortune Teller"
PERFORMER "Chastain"
INDEX 01 15:12:33
TRACK 06 AUDIO
TITLE "Child Of Evermore"
PERFORMER "Chastain"
INDEX 01 19:39:03
TRACK 07 AUDIO
TITLE "Soldiers Of The Flame"
PERFORMER "Chastain"
INDEX 01 24:06:12
TRACK 08 AUDIO
TITLE "Evil For Evil"
PERFORMER "Chastain"
INDEX 01 27:19:09
TRACK 09 AUDIO
TITLE "Take Me Home"
PERFORMER "Chastain"
INDEX 01 31:35:67
TRACK 10 AUDIO
TITLE "The Voice Of The Cult (Instrumental)"
PERFORMER "Chastain"
INDEX 01 37:58:07
TRACK 11 AUDIO
TITLE "Evil For Evil (Instrumental)"
PERFORMER "Chastain"
INDEX 01 41:11:37

"Log"
Exact Audio Copy V0.99 prebeta 5 from 4. May 2009

Отчёт EAC об извлечении, выполненном 30. сентября 2015, 19:47

Chastain / The Voice Of The Cult

Дисковод: MATSHITADVD-RAM UJ8A0AS Adapter: 0 ID: 1

Режим чтения : Достоверность
Использование точного потока : Да
Отключение кэша аудио : Да
Использование указателей C2 : Нет

Коррекция смещения при чтении : 102
Способность читать области Lead-in и Lead-out : Нет
Заполнение пропущенных сэмплов тишиной : Да
Удаление блоков с тишиной в начале и конце : Нет
При вычислениях CRC использовались нулевые сэмплы : Да
Интерфейс : Встроенный Win32-интерфейс для Win NT/2000

Выходной формат : Пользовательский кодировщик
Выбранный битрейт : 1024 kBit/s
Качество : Высокий
Добавление ID3-тэга : Нет
Утилита сжатия : C:\Program Files\Exact Audio Copy\FLAC\FLAC.EXE
Дополнительные параметры : -6 -V -T "ARTIST=%a" -T "TITLE=%t" -T "ALBUM=%g" -T "DATE=%y" -T "TRACKNUMBER=%n" -T "GENRE=%m" -T "COMMENT=%e" %s -o %d


TOC извлечённого CD

Трек | Старт | Длительность | Начальный сектор | Конечный сектор
---------------------------------------------------------------------
1 | 0:00.00 | 4:35.42 | 0 | 20666
2 | 4:35.42 | 3:10.60 | 20667 | 34976
3 | 7:46.27 | 3:32.59 | 34977 | 50935
4 | 11:19.11 | 3:53.22 | 50936 | 68432
5 | 15:12.33 | 4:26.45 | 68433 | 88427
6 | 19:39.03 | 4:27.09 | 88428 | 108461
7 | 24:06.12 | 3:12.72 | 108462 | 122933
8 | 27:19.09 | 4:16.58 | 122934 | 142191
9 | 31:35.67 | 6:22.15 | 142192 | 170856
10 | 37:58.07 | 3:13.30 | 170857 | 185361
11 | 41:11.37 | 3:03.29 | 185362 | 199115


Характеристики диапазона извлечения и сообщения об ошибках

Выбранный диапазон

Имя файла C:\Users\эксперт\Music\Chastain - The Voice Of The Cult.wav

Пиковый уровень 98.8 %
Качество диапазона 99.9 %
CRC копии 3070E099
Копирование... OK

Ошибок не произошло


AccurateRip: сводка

Трек 1 нет в базе данных
Трек 2 нет в базе данных
Трек 3 нет в базе данных
Трек 4 нет в базе данных
Трек 5 нет в базе данных
Трек 6 нет в базе данных
Трек 7 нет в базе данных
Трек 8 нет в базе данных
Трек 9 нет в базе данных
Трек 10 нет в базе данных
Трек 11 нет в базе данных

Ни одного трека нет в базе AccurateRip

Конец отчёта


The Voice Of The Cult


Top
 Profile  
 
 
PostPosted: 12 Jan 2016 
А может смените мне статус?..
User avatar
Joined: 24 Dec 2008
Posts: 667
Age: 47
Name: Дмитрий
:dance:


Top
 Profile  
 
 
PostPosted: 12 Jan 2016 
Хиппей (support team)
User avatar
Joined: 30 Jul 2007
Posts: 119887
Lоcаtion: Киев (Kyiv, UA)
Age: 47
Name: Andrey
:thanx:

_________________


Top
 Profile E-mail  
 
 
PostPosted: 13 Jan 2016 
Я набрал 1000 сообщений!
User avatar
Joined: 21 Nov 2009
Posts: 1452
Lоcаtion: praga
Age: 50
Name: Сергей
:thanx:


Top
 Profile E-mail  
 
Display posts from previous:  Sort by  
Post new topic Reply to topic  [ 4 posts ] 

All times are UTC + 3 hours


Who is online

Users browsing this forum: No registered users and 2 guests


You cannot post new topics in this forum
You cannot reply to topics in this forum
You cannot edit your posts in this forum
You cannot delete your posts in this forum
You cannot post attachments in this forum

Search for:
Яндекс.Метрика
Powered by phpBB © 2000, 2002, 2005, 2007 phpBB Group