\m/ 80's metal \m/

Информационно-аналитический форум "80 см пыли" (In Search We Trust) "У нас никто никуда не спешит"
Me For You - http://me-4u.com
It is currently 06 Dec 2021

All times are UTC + 3 hours

Spoiler
Chat - temporary registration for foreign users (please leave your application here)







Post new topic Reply to topic  [ 12 posts ] 
Author Message
 
PostPosted: 12 Jan 2016 
Генеральный thrasher
User avatar
Joined: 03 Oct 2008
Posts: 3751
Lоcаtion: Ханты-Мансийский АО
Age: 46
Name: Сергей
Image

Year:1987 (2014 Re-Issue)
Style:Heavy Metal
Country:U.S.A.
Archive:Flac+Cue+Log+Scans
Size:404Mb
Source:my CD
Label:Divebomb Records

Tracklist:
01 We Must Carry On 03:42
02 Paradise 04:18
03 It's Too Late For Yesterday 04:54
04 827 03:27
05 The Wicked Are Restless 05:42
06 The 7th Of Never 04:55
07 Take Me Back In Time 04:55
08 Feel His Magic 05:10
09 Forevermore
Bonus Tracks:
10 It's Too Late For Yesterday (Instrumental) 02:58
11 The 7th Of Never (Instrumental) 03:03

"Cue"
REM GENRE "Heavy Metal"
REM DATE 2015
REM DISCID 8F0B820B
REM COMMENT "ExactAudioCopy v0.99pb5"
PERFORMER "Chastain"
TITLE "The 7th Of Never"
FILE "Chastain - The 7th Of Never.flac" WAVE
TRACK 01 AUDIO
TITLE "We Must Carry On"
PERFORMER "Chastain"
FLAGS DCP
INDEX 01 00:00:00
TRACK 02 AUDIO
TITLE "Paradise"
PERFORMER "Chastain"
FLAGS DCP
INDEX 01 03:41:24
TRACK 03 AUDIO
TITLE "It's Too Late For Yesterday"
PERFORMER "Chastain"
FLAGS DCP
INDEX 01 07:58:39
TRACK 04 AUDIO
TITLE "827"
PERFORMER "Chastain"
FLAGS DCP
INDEX 01 12:52:35
TRACK 05 AUDIO
TITLE "The Wicked Are Restless"
PERFORMER "Chastain"
FLAGS DCP
INDEX 01 16:19:14
TRACK 06 AUDIO
TITLE "The 7th Of Never"
PERFORMER "Chastain"
FLAGS DCP
INDEX 01 22:00:32
TRACK 07 AUDIO
TITLE "Take Me Back In Time"
PERFORMER "Chastain"
FLAGS DCP
INDEX 01 26:55:20
TRACK 08 AUDIO
TITLE "Feel His Magic"
PERFORMER "Chastain"
FLAGS DCP
INDEX 01 31:49:61
TRACK 09 AUDIO
TITLE "Forevermore"
PERFORMER "Chastain"
FLAGS DCP
INDEX 01 36:59:16
TRACK 10 AUDIO
TITLE "It's Too Late For Yesterday (Instrumental)"
PERFORMER "Chastain"
FLAGS DCP
INDEX 01 43:06:39
TRACK 11 AUDIO
TITLE "The 7th Of Never (Instrumental)"
PERFORMER "Chastain"
FLAGS DCP
INDEX 01 46:04:12

"Log"
Exact Audio Copy V0.99 prebeta 5 from 4. May 2009

Отчёт EAC об извлечении, выполненном 30. сентября 2015, 21:09

Chastain / The 7th Of Never

Дисковод: MATSHITADVD-RAM UJ8A0AS Adapter: 0 ID: 1

Режим чтения : Достоверность
Использование точного потока : Да
Отключение кэша аудио : Да
Использование указателей C2 : Нет

Коррекция смещения при чтении : 102
Способность читать области Lead-in и Lead-out : Нет
Заполнение пропущенных сэмплов тишиной : Да
Удаление блоков с тишиной в начале и конце : Нет
При вычислениях CRC использовались нулевые сэмплы : Да
Интерфейс : Встроенный Win32-интерфейс для Win NT/2000

Выходной формат : Пользовательский кодировщик
Выбранный битрейт : 1024 kBit/s
Качество : Высокий
Добавление ID3-тэга : Нет
Утилита сжатия : C:\Program Files\Exact Audio Copy\FLAC\FLAC.EXE
Дополнительные параметры : -6 -V -T "ARTIST=%a" -T "TITLE=%t" -T "ALBUM=%g" -T "DATE=%y" -T "TRACKNUMBER=%n" -T "GENRE=%m" -T "COMMENT=%e" %s -o %d


TOC извлечённого CD

Трек | Старт | Длительность | Начальный сектор | Конечный сектор
---------------------------------------------------------------------
1 | 0:00.00 | 3:41.24 | 0 | 16598
2 | 3:41.24 | 4:17.15 | 16599 | 35888
3 | 7:58.39 | 4:53.71 | 35889 | 57934
4 | 12:52.35 | 3:26.54 | 57935 | 73438
5 | 16:19.14 | 5:41.18 | 73439 | 99031
6 | 22:00.32 | 4:54.63 | 99032 | 121144
7 | 26:55.20 | 4:54.41 | 121145 | 143235
8 | 31:49.61 | 5:09.30 | 143236 | 166440
9 | 36:59.16 | 6:07.23 | 166441 | 193988
10 | 43:06.39 | 2:57.48 | 193989 | 207311
11 | 46:04.12 | 3:02.50 | 207312 | 221011


Характеристики диапазона извлечения и сообщения об ошибках

Выбранный диапазон

Имя файла C:\Users\эксперт\Music\Chastain - The 7th Of Never.wav

Пиковый уровень 98.8 %
Качество диапазона 100.0 %
CRC копии C7C0A10B
Копирование... OK

Ошибок не произошло


AccurateRip: сводка

Трек 1 нет в базе данных
Трек 2 нет в базе данных
Трек 3 нет в базе данных
Трек 4 нет в базе данных
Трек 5 нет в базе данных
Трек 6 нет в базе данных
Трек 7 нет в базе данных
Трек 8 нет в базе данных
Трек 9 нет в базе данных
Трек 10 нет в базе данных
Трек 11 нет в базе данных

Ни одного трека нет в базе AccurateRip

Конец отчёта


The 7th Of Never


Top
 Profile  
 
 
PostPosted: 12 Jan 2016 
Я набрал 1000 сообщений!
User avatar
Joined: 21 Nov 2009
Posts: 1506
Lоcаtion: praga
Age: 51
Name: Сергей
:thanx:


Top
 Profile E-mail  
 
 
PostPosted: 12 Jan 2016 
А может смените мне статус?..
User avatar
Joined: 24 Dec 2008
Posts: 679
Age: 47
Name: Дмитрий
:true:


Top
 Profile  
 
 
PostPosted: 12 Jan 2016 
Хиппей (support team)
User avatar
Joined: 30 Jul 2007
Posts: 123254
Lоcаtion: Киев (Kyiv, UA)
Age: 48
Name: Andrey
:thanx:

_________________


Top
 Profile E-mail  
 
 
PostPosted: 13 Jan 2016 
Я набрал 1000 сообщений!
User avatar
Joined: 22 Jun 2011
Posts: 1617
Lоcаtion: Донецк.
Age: 51
Name: Сергей
на виниле, помнится, другое было изображение :lloo:


Top
 Profile E-mail  
 
 
PostPosted: 13 Jan 2016 
Персональный статус
Joined: 05 Feb 2011
Posts: 382
Lоcаtion: Russia, Novosibirsk
Age: 47
Name: Андрей
на виниле, помнится, другое было изображение :lloo:

для европейского издания на Black Dragon была обложка другая нарисована,
на штатовском от Leviathan изначально и было как на этом Deluxe


Top
 Profile E-mail  
 
 
PostPosted: 13 Jan 2016 
Я набрал 1000 сообщений!
User avatar
Joined: 22 Jun 2011
Posts: 1617
Lоcаtion: Донецк.
Age: 51
Name: Сергей
Image

:kro:
вообще мой любимый предыдущий 86


Top
 Profile E-mail  
 
 
PostPosted: 13 Jan 2016 
Я набрал 1000 сообщений!
User avatar
Joined: 21 Nov 2009
Posts: 1506
Lоcаtion: praga
Age: 51
Name: Сергей
Image

:kro:
вообще мой любимый предыдущий 86

Жуть,оформление типа Steel Veangence. :shok: :shok: :losik:


Top
 Profile E-mail  
 
 
PostPosted: 13 Jan 2016 
Я набрал 1000 сообщений!
User avatar
Joined: 22 Jun 2011
Posts: 1617
Lоcаtion: Донецк.
Age: 51
Name: Сергей
а между тем в 1987 я такое в руках держал, на что-то выменял "на неделю" переписать себе и всем знакомым :true:


Top
 Profile E-mail  
 
 
PostPosted: 28 May 2017 
семерых одним ударом
Joined: 18 Aug 2007
Posts: 4786
Lоcаtion: Владивосток
Age: 46
Name: Николай Николаевич
слуханул Surrender to no one...Дэйв крут, интересно как ему удается постоянно выруливать этот атакующий саунд...удивляюсь, кому пришло в голову war metal'ом назвать такое *** как bolt thrower


Top
 Profile  
 
 
PostPosted: 31 May 2017 
Хиппей (support team)
User avatar
Joined: 30 Jul 2007
Posts: 123254
Lоcаtion: Киев (Kyiv, UA)
Age: 48
Name: Andrey
thorbeorn wrote:
The 7th Of Never

Серёг, а чего файл то удалил? :vic:

_________________


Top
 Profile E-mail  
 
 
PostPosted: 01 Jun 2017 
Генеральный thrasher
User avatar
Joined: 03 Oct 2008
Posts: 3751
Lоcаtion: Ханты-Мансийский АО
Age: 46
Name: Сергей
Место в облаке заканчивалось - вот и удалил.


Top
 Profile  
 
Display posts from previous:  Sort by  
Post new topic Reply to topic  [ 12 posts ] 

All times are UTC + 3 hours


Who is online

Users browsing this forum: No registered users and 1 guest


You cannot post new topics in this forum
You cannot reply to topics in this forum
You cannot edit your posts in this forum
You cannot delete your posts in this forum

Search for:
Яндекс.Метрика
Powered by phpBB © 2000, 2002, 2005, 2007 phpBB Group