\m/ 80's metal \m/

Информационно-аналитический форум "80 см пыли" (In Search We Trust) "У нас никто никуда не спешит"
Me For You - http://me-4u.com
It is currently 28 Jan 2021

All times are UTC + 3 hours

Spoiler
Chat - temporary registration for foreign users (please leave your application here)







Post new topic Reply to topic  [ 7 posts ] 
Author Message
 
PostPosted: 06 Dec 2015 
Работнечег
User avatar
Joined: 28 Aug 2007
Posts: 6363
Lоcаtion: г. Москва
Age: 31
Name: Дима
Image

Year: 2014
Label: EMI Music Malaysia
Genre: Heavy/Thrash Metal
Coutry: Malaysia
Format: Flac + Log + Cue + Covers
Size: 479 Mb

Tracklist:
1. Suffer 04:30
2. Journey 05:48
3. Eclipse 04:53
4. Seedling 04:06
5. Final Ticking 04:28
6. The Other 06:07
7. Somewhere Anywhere 05:19
8. Obsessed 04:48
9. Maram Perapu Kepunden Paran Sekeper 01:00
10. Memories 05:46
11. Stranger 05:05
12. Misty 05:51
13. Nightmare 04:22

LOG
Exact Audio Copy V0.99 prebeta 5 from 4. May 2009

EAC extraction logfile from 5. December 2015, 14:19

Cromok / Mean, Meaner, Meanest(Reissued In 2014)

Used drive : PIONEER DVD-RW DVR-221 Adapter: 2 ID: 1

Read mode : Secure
Utilize accurate stream : Yes
Defeat audio cache : Yes
Make use of C2 pointers : No

Read offset correction : 6
Overread into Lead-In and Lead-Out : No
Fill up missing offset samples with silence : Yes
Delete leading and trailing silent blocks : No
Null samples used in CRC calculations : Yes
Used interface : Native Win32 interface for Win NT & 2000

Used output format : User Defined Encoder
Selected bitrate : 32 kBit/s
Quality : High
Add ID3 tag : No
Command line compressor : C:\Program Files\Exact Audio Copy\Flac\flac.exe
Additional command line options : -6 -V %s


TOC of the extracted CD

Track | Start | Length | Start sector | End sector
---------------------------------------------------------
1 | 0:00.00 | 4:31.27 | 0 | 20351
2 | 4:31.27 | 6:07.70 | 20352 | 47946
3 | 10:39.22 | 4:59.53 | 47947 | 70424
4 | 15:39.00 | 4:07.05 | 70425 | 88954
5 | 19:46.05 | 4:41.22 | 88955 | 110051
6 | 24:27.27 | 6:07.13 | 110052 | 137589
7 | 30:34.40 | 5:19.52 | 137590 | 161566
8 | 35:54.17 | 4:48.45 | 161567 | 183211
9 | 40:42.62 | 1:00.33 | 183212 | 187744
10 | 41:43.20 | 5:47.25 | 187745 | 213794
11 | 47:30.45 | 5:06.32 | 213795 | 236776
12 | 52:37.02 | 5:51.18 | 236777 | 263119
13 | 58:28.20 | 4:22.20 | 263120 | 282789


Range status and errors

Selected range

Filename D:\Музыка\Lossless\Cromok - Mean, Meaner, Meanest (1999)(Reissued In 2014)\Cromok - Mean, Meaner, Meanest(Reissued In 2014).wav

Peak level 99.7 %
Range quality 100.0 %
Copy CRC 9B1C5B2B
Copy OK

No errors occurred


AccurateRip summary

Track 1 not present in database
Track 2 not present in database
Track 3 not present in database
Track 4 not present in database
Track 5 not present in database
Track 6 not present in database
Track 7 not present in database
Track 8 not present in database
Track 9 not present in database
Track 10 not present in database
Track 11 not present in database
Track 12 not present in database
Track 13 not present in database

None of the tracks are present in the AccurateRip database

End of status report

CUE
REM GENRE "Thrash Metal"
REM DATE 1999
REM DISCID B30EBA0D
REM COMMENT "ExactAudioCopy v0.99pb5"
PERFORMER "Cromok"
TITLE "Mean, Meaner, Meanest(Reissued In 2014)"
FILE "Cromok - Mean, Meaner, Meanest(Reissued In 2014).flac" WAVE
TRACK 01 AUDIO
TITLE "Suffer"
PERFORMER "Cromok"
INDEX 01 00:00:00
TRACK 02 AUDIO
TITLE "Journey"
PERFORMER "Cromok"
INDEX 01 04:31:27
TRACK 03 AUDIO
TITLE "Eclipse"
PERFORMER "Cromok"
INDEX 00 10:37:55
INDEX 01 10:39:22
TRACK 04 AUDIO
TITLE "Seedling"
PERFORMER "Cromok"
INDEX 00 15:37:32
INDEX 01 15:39:00
TRACK 05 AUDIO
TITLE "Final Ticking"
PERFORMER "Cromok"
INDEX 01 19:46:05
TRACK 06 AUDIO
TITLE "The Other"
PERFORMER "Cromok"
INDEX 00 24:25:60
INDEX 01 24:27:27
TRACK 07 AUDIO
TITLE "Somewhere Anywhere"
PERFORMER "Cromok"
INDEX 01 30:34:40
TRACK 08 AUDIO
TITLE "Obsessed"
PERFORMER "Cromok"
INDEX 01 35:54:17
TRACK 09 AUDIO
TITLE "Maram Perapu Kepunden Paran Sekeper"
PERFORMER "Cromok"
INDEX 00 40:41:20
INDEX 01 40:42:62
TRACK 10 AUDIO
TITLE "Memories"
PERFORMER "Cromok"
INDEX 00 41:41:52
INDEX 01 41:43:20
TRACK 11 AUDIO
TITLE "Stranger"
PERFORMER "Cromok"
INDEX 00 47:29:02
INDEX 01 47:30:45
TRACK 12 AUDIO
TITLE "Misty"
PERFORMER "Cromok"
INDEX 00 52:35:34
INDEX 01 52:37:02
TRACK 13 AUDIO
TITLE "Nightmare"
PERFORMER "Cromok"
INDEX 00 58:26:52
INDEX 01 58:28:20


Yadi



Один из самых лучших альбомов наверное для меня у этой группы! Вокал такой типично латиноамерикано трэшевый, музыка скорее чуть выше среднетемповой! чуть затянутый, но приятный альбом!

Для тех, кто пропустил:
viewtopic.php?f=176&t=10366&start=0

Вот эту темку с мп3 наверное можно и прикрыть уже:
viewtopic.php?f=104&t=3328&hilit=cromok


Top
 Profile E-mail  
 
 
PostPosted: 06 Dec 2015 
Прокъмитолист
User avatar
Joined: 12 Aug 2007
Posts: 6795
Lоcаtion: Санктъ-Петербуркъ
Age: 53
Name: Олекъ
:thanx:

_________________
прокъметол - это музыко, от которово есть прок (ы)


Top
 Profile  
 
 
PostPosted: 06 Dec 2015 
Я набрал 1000 сообщений!
User avatar
Joined: 02 Feb 2009
Posts: 1000
Lоcаtion: из Тулы
Age: 46
Name: Максим
:true: :thanx:

_________________
КМА


Top
 Profile  
 
 
PostPosted: 06 Dec 2015 
спирт 100%
User avatar
Joined: 22 Sep 2008
Posts: 4616
Age: 49
Name: Саня
Спасибо,Дим!!! :thanx:


Top
 Profile  
 
 
PostPosted: 07 Dec 2015 
ТрэшЭрос
User avatar
Joined: 18 Jul 2011
Posts: 2307
Lоcаtion: Гулькевичи
Age: 46
Name: Александр
church :thanx: :true:

_________________
Thrash no trash!!!


Top
 Profile E-mail  
 
 
PostPosted: 07 Dec 2015 
DarkSage
User avatar
Joined: 24 Sep 2009
Posts: 1216
Lоcаtion: Moscow
Name: Оксана
Радостно всё в этом мире бушующем...
сохраню для потомства)

_________________
Image.Image


Top
 Profile E-mail  
 
 
PostPosted: 08 Dec 2015 
Alive Again
User avatar
Joined: 17 Dec 2008
Posts: 4750
Lоcаtion: Курск Воронеж Оскол
Age: 46
Name: Дмитрий
:thanx:


Top
 Profile E-mail  
 
Display posts from previous:  Sort by  
Post new topic Reply to topic  [ 7 posts ] 

All times are UTC + 3 hours


Who is online

Users browsing this forum: No registered users and 2 guests


You cannot post new topics in this forum
You cannot reply to topics in this forum
You cannot edit your posts in this forum
You cannot delete your posts in this forum
You cannot post attachments in this forum

Search for:
Яндекс.Метрика
Powered by phpBB © 2000, 2002, 2005, 2007 phpBB Group