\m/ 80's metal \m/

Информационно-аналитический форум "80 см пыли" (In Search We Trust) "У нас никто никуда не спешит"
Me For You - http://me-4u.com
It is currently 28 Jan 2021

All times are UTC + 3 hours

Spoiler
Chat - temporary registration for foreign users (please leave your application here)







Post new topic Reply to topic  [ 3 posts ] 
Author Message
 
PostPosted: 06 Jun 2015 
Генеральный thrasher
User avatar
Joined: 03 Oct 2008
Posts: 3751
Lоcаtion: Ханты-Мансийский АО
Age: 45
Name: Сергей
Image

Year:2012
Style:Thrash Metal
Country:Mexico
Audio:Flac+Cue+Log+Scans
Size:369Mb
Source:my CD
Label:Ablaze Productions

Tracklist:
01. Intro 00:58
02. Thrashin Your Ears 04:26
03. S.B.K. 05:03
04. Counter Strike 04:37
05. Fuckaholic 04:42
06. Scarface 04:03
07. The Corpse Collector 03:24
08. Night Stalker 04:29
09. Rambo the War Machine 04:54
10. Contraataque 04:38
11. S.B.K. 03:57
12. Kill the Posers 05:50

"Cue"
REM GENRE "Thrash Metal"
REM DATE 2012
REM DISCID 8D0BFA0C
REM COMMENT "ExactAudioCopy v0.99pb5"
PERFORMER "Commando"
TITLE "Fuckaholics"
FILE "Commando - Fuckaholics.flac" WAVE
TRACK 01 AUDIO
TITLE "Intro"
PERFORMER "Commando"
INDEX 01 00:00:00
TRACK 02 AUDIO
TITLE "Thrashin Your Ears"
PERFORMER "Commando"
INDEX 01 00:58:66
TRACK 03 AUDIO
TITLE "S.B.K."
PERFORMER "Commando"
INDEX 01 05:25:51
TRACK 04 AUDIO
TITLE "Counter Strike"
PERFORMER "Commando"
INDEX 01 10:28:67
TRACK 05 AUDIO
TITLE "Fuckaholic"
PERFORMER "Commando"
INDEX 01 15:06:57
TRACK 06 AUDIO
TITLE "Scarface"
PERFORMER "Commando"
INDEX 01 19:49:09
TRACK 07 AUDIO
TITLE "The Corpse Collector"
PERFORMER "Commando"
INDEX 01 23:53:07
TRACK 08 AUDIO
TITLE "Night Stalker"
PERFORMER "Commando"
INDEX 01 27:18:00
TRACK 09 AUDIO
TITLE "Rambo The War Machine"
PERFORMER "Commando"
INDEX 01 31:47:17
TRACK 10 AUDIO
TITLE "Contraataque"
PERFORMER "Commando"
INDEX 01 36:41:24
TRACK 11 AUDIO
TITLE "S.B.K."
PERFORMER "Commando"
INDEX 01 41:19:30
TRACK 12 AUDIO
TITLE "Kill The Posers"
PERFORMER "Commando"
INDEX 01 45:16:41

"Log"
Exact Audio Copy V0.99 prebeta 5 from 4. May 2009

Отчёт EAC об извлечении, выполненном 16. января 2015, 14:45

Commando / Fuckaholics

Дисковод: MATSHITADVD-RAM UJ8A0AS Adapter: 0 ID: 1

Режим чтения : Достоверность
Использование точного потока : Да
Отключение кэша аудио : Да
Использование указателей C2 : Нет

Коррекция смещения при чтении : 102
Способность читать области Lead-in и Lead-out : Нет
Заполнение пропущенных сэмплов тишиной : Да
Удаление блоков с тишиной в начале и конце : Нет
При вычислениях CRC использовались нулевые сэмплы : Да
Интерфейс : Встроенный Win32-интерфейс для Win NT/2000

Выходной формат : Пользовательский кодировщик
Выбранный битрейт : 1024 kBit/s
Качество : Высокий
Добавление ID3-тэга : Нет
Утилита сжатия : C:\Program Files\Exact Audio Copy\FLAC\FLAC.EXE
Дополнительные параметры : -6 -V -T "ARTIST=%a" -T "TITLE=%t" -T "ALBUM=%g" -T "DATE=%y" -T "TRACKNUMBER=%n" -T "GENRE=%m" -T "COMMENT=%e" %s -o %d


TOC извлечённого CD

Трек | Старт | Длительность | Начальный сектор | Конечный сектор
---------------------------------------------------------------------
1 | 0:00.00 | 0:58.66 | 0 | 4415
2 | 0:58.66 | 4:26.60 | 4416 | 24425
3 | 5:25.51 | 5:03.16 | 24426 | 47166
4 | 10:28.67 | 4:37.65 | 47167 | 68006
5 | 15:06.57 | 4:42.27 | 68007 | 89183
6 | 19:49.09 | 4:03.73 | 89184 | 107481
7 | 23:53.07 | 3:24.68 | 107482 | 122849
8 | 27:18.00 | 4:29.17 | 122850 | 143041
9 | 31:47.17 | 4:54.07 | 143042 | 165098
10 | 36:41.24 | 4:38.06 | 165099 | 185954
11 | 41:19.30 | 3:57.11 | 185955 | 203740
12 | 45:16.41 | 5:50.30 | 203741 | 230020


Характеристики диапазона извлечения и сообщения об ошибках

Выбранный диапазон

Имя файла C:\Users\эксперт\Music\Commando - Fuckaholics.wav

Пиковый уровень 100.0 %
Качество диапазона 99.9 %
CRC копии F5DADFC0
Копирование... OK

Ошибок не произошло


AccurateRip: сводка

Трек 1 нет в базе данных
Трек 2 нет в базе данных
Трек 3 нет в базе данных
Трек 4 нет в базе данных
Трек 5 нет в базе данных
Трек 6 нет в базе данных
Трек 7 нет в базе данных
Трек 8 нет в базе данных
Трек 9 нет в базе данных
Трек 10 нет в базе данных
Трек 11 нет в базе данных
Трек 12 нет в базе данных

Ни одного трека нет в базе AccurateRip

Конец отчёта


Fuckaholics


Top
 Profile  
 
 
PostPosted: 07 Jun 2015 
Прокъмитолист
User avatar
Joined: 12 Aug 2007
Posts: 6795
Lоcаtion: Санктъ-Петербуркъ
Age: 53
Name: Олекъ
:thanx:

_________________
прокъметол - это музыко, от которово есть прок (ы)


Top
 Profile  
 
 
PostPosted: 08 Jun 2015 
Alive Again
User avatar
Joined: 17 Dec 2008
Posts: 4750
Lоcаtion: Курск Воронеж Оскол
Age: 46
Name: Дмитрий
:thanx:


Top
 Profile E-mail  
 
Display posts from previous:  Sort by  
Post new topic Reply to topic  [ 3 posts ] 

All times are UTC + 3 hours


Who is online

Users browsing this forum: No registered users and 3 guests


You cannot post new topics in this forum
You cannot reply to topics in this forum
You cannot edit your posts in this forum
You cannot delete your posts in this forum
You cannot post attachments in this forum

Search for:
Яндекс.Метрика
Powered by phpBB © 2000, 2002, 2005, 2007 phpBB Group