\m/ 80's metal \m/

Информационно-аналитический форум "80 см пыли" (In Search We Trust) "У нас никто никуда не спешит"
Me For You - http://me-4u.com
It is currently 06 Dec 2021

All times are UTC + 3 hours

Spoiler
Chat - temporary registration for foreign users (please leave your application here)







Post new topic Reply to topic  [ 6 posts ] 
Author Message
 
PostPosted: 09 May 2015 
Работнечег
User avatar
Joined: 28 Aug 2007
Posts: 6392
Lоcаtion: г. Москва
Age: 32
Name: Дима
Image

Label: Siren Records
Genre: Heavy/Power Metal
Coutry: Greece
Format: Flac + Log + Cue + Covers
Size: 280 Mb

Line-Up:
Tasos Vretakis - Bass
Kostas Vogiatzogloy - Drums
Pantelis Rodostoglou - Guitars
Panagiotis Konstantinidis - Vocals


Tracklist:
1. Beyond the Gates... 01:09
2. March of the Deads 05:25
3. The Gloriest Night 03:08
4. Kingdom of the Kings 03:27
5. Run to the Highway 03:35
6. Unborn 03:51
7. Flag of Hate 04:33
8. Princess of Hell 03:48
9. Ballad of Sorrow 04:51
10. Morpheus World (Bonus) 04:05

LOG
Exact Audio Copy V0.99 prebeta 5 from 4. May 2009

EAC extraction logfile from 6. May 2015, 20:54

Crush / Kingdon Of The Kings (Reissue In 2009)

Used drive : PIONEER DVD-RW DVR-221 Adapter: 2 ID: 1

Read mode : Secure
Utilize accurate stream : Yes
Defeat audio cache : Yes
Make use of C2 pointers : No

Read offset correction : 6
Overread into Lead-In and Lead-Out : No
Fill up missing offset samples with silence : Yes
Delete leading and trailing silent blocks : No
Null samples used in CRC calculations : Yes
Used interface : Native Win32 interface for Win NT & 2000

Used output format : User Defined Encoder
Selected bitrate : 32 kBit/s
Quality : High
Add ID3 tag : No
Command line compressor : C:\Program Files\Exact Audio Copy\Flac\flac.exe
Additional command line options : -6 -V %s


TOC of the extracted CD

Track | Start | Length | Start sector | End sector
---------------------------------------------------------
1 | 0:00.00 | 1:08.02 | 0 | 5101
2 | 1:08.02 | 5:26.26 | 5102 | 29577
3 | 6:34.28 | 3:11.09 | 29578 | 43911
4 | 9:45.37 | 3:28.63 | 43912 | 59574
5 | 13:14.25 | 3:36.18 | 59575 | 75792
6 | 16:50.43 | 3:53.09 | 75793 | 93276
7 | 20:43.52 | 4:31.62 | 93277 | 113663
8 | 25:15.39 | 3:49.73 | 113664 | 130911
9 | 29:05.37 | 4:52.34 | 130912 | 152845
10 | 33:57.71 | 4:05.30 | 152846 | 171250


Range status and errors

Selected range

Filename D:\Музыка\Lossless\Crush - Kingdom Of The Kings (1993)(Reissued In 2009)\Crush - Kingdon Of The Kings (Reissue In 2009).wav

Peak level 100.0 %
Range quality 100.0 %
Copy CRC 6EA6290A
Copy OK

No errors occurred


AccurateRip summary

Track 1 cannot be verified as accurate (confidence 1) [137B18AB], AccurateRip returned [6D5A166C]
Track 2 cannot be verified as accurate (confidence 1) [88D6E290], AccurateRip returned [55E42209]
Track 3 cannot be verified as accurate (confidence 1) [D172D5BA], AccurateRip returned [B69F88AF]
Track 4 cannot be verified as accurate (confidence 1) [EAFD5EF7], AccurateRip returned [9C9A49C6]
Track 5 cannot be verified as accurate (confidence 1) [33EE3129], AccurateRip returned [EC0FB1C5]
Track 6 cannot be verified as accurate (confidence 1) [4B88DD97], AccurateRip returned [CD764FD1]
Track 7 cannot be verified as accurate (confidence 1) [C22D8A27], AccurateRip returned [6B365879]
Track 8 cannot be verified as accurate (confidence 1) [77674EF0], AccurateRip returned [CD55F04E]
Track 9 cannot be verified as accurate (confidence 1) [CAEEF0A0], AccurateRip returned [090DC35A]
Track 10 cannot be verified as accurate (confidence 1) [61451398], AccurateRip returned [E0EE94CB]

No tracks could be verified as accurate
You may have a different pressing from the one(s) in the database

End of status report

CUE
REM GENRE "Heavy Metal"
REM DATE 1993
REM DISCID 8408EB0A
REM COMMENT "ExactAudioCopy v0.99pb5"
PERFORMER "Crush"
TITLE "Kingdon Of The Kings (Reissue In 2009)"
FILE "Crush - Kingdon Of The Kings (Reissue In 2009).flac" WAVE
TRACK 01 AUDIO
TITLE "Beyond The Gates..."
PERFORMER "Crush"
INDEX 01 00:00:00
TRACK 02 AUDIO
TITLE "March Of The Deads"
PERFORMER "Crush"
INDEX 00 01:06:02
INDEX 01 01:08:02
TRACK 03 AUDIO
TITLE "The Gloriest Night"
PERFORMER "Crush"
INDEX 00 06:32:28
INDEX 01 06:34:28
TRACK 04 AUDIO
TITLE "Kingdom Of The Kings"
PERFORMER "Crush"
INDEX 00 09:43:37
INDEX 01 09:45:37
TRACK 05 AUDIO
TITLE "Run To The Highway"
PERFORMER "Crush"
INDEX 00 13:12:25
INDEX 01 13:14:25
TRACK 06 AUDIO
TITLE "Unborn"
PERFORMER "Crush"
INDEX 00 16:48:43
INDEX 01 16:50:43
TRACK 07 AUDIO
TITLE "Flag Of Hate"
PERFORMER "Crush"
INDEX 00 20:41:52
INDEX 01 20:43:52
TRACK 08 AUDIO
TITLE "Princess Of Hell"
PERFORMER "Crush"
INDEX 00 25:13:39
INDEX 01 25:15:39
TRACK 09 AUDIO
TITLE "Ballad Of Sorrow"
PERFORMER "Crush"
INDEX 00 29:03:37
INDEX 01 29:05:37
TRACK 10 AUDIO
TITLE "Morpheus World (Bonus)"
PERFORMER "Crush"
INDEX 00 33:55:71
INDEX 01 33:57:71


FLAC



Отличный релиз от греков! :true: Даже Андрюхе понравилось viewtopic.php?f=107&t=10539 Ну и запросик закроем заодно!


Top
 Profile E-mail  
 
 
PostPosted: 09 May 2015 
\m/ 80 см сала \m/
User avatar
Joined: 12 Mar 2012
Posts: 2602
Age: 28
Name: Nick
:thanx:

_________________
1990 AUROPHON BRAINSTORM (Germany) - lossless
1994 MAUSOLEUM CLASSIX (Belgium-Germany) - lossless
1998 VA - GRIM HARVEST - Complete Metal Massacre Volumes I-XII


Top
 Profile  
 
 
PostPosted: 10 May 2015 
Прокъмитолист
User avatar
Joined: 12 Aug 2007
Posts: 6878
Lоcаtion: Санктъ-Петербуркъ
Age: 54
Name: Олекъ
:thanx:

_________________
прокъметол - это музыко, от которово есть прок (ы)


Top
 Profile  
 
 
PostPosted: 10 May 2015 
ТрэшЭрос
User avatar
Joined: 18 Jul 2011
Posts: 2307
Lоcаtion: Гулькевичи
Age: 46
Name: Александр
church, :thanx:
Весьма добротный материал! Тут вам и Flag of Hate (не Kreator), и баллада of Sorrow для истерзанных попсой душ металлистов, ну и на десерт бонусный боевичок из мира Морфея! Ставлю на повтор и :true:

ПиСи. Видос удалён... :oops:

_________________
Thrash no trash!!!


Top
 Profile E-mail  
 
 
PostPosted: 10 May 2015 
Доктор энтомологии
User avatar
Joined: 22 Jan 2009
Posts: 10422
Lоcаtion: Даугавпилс
Age: 46
Name: Алексей
:thanx:


Top
 Profile  
 
 
PostPosted: 11 May 2015 
спирт 100%
User avatar
Joined: 22 Sep 2008
Posts: 4633
Age: 50
Name: Саня
:thanx: Дим,Спасибо!


Top
 Profile  
 
Display posts from previous:  Sort by  
Post new topic Reply to topic  [ 6 posts ] 

All times are UTC + 3 hours


Who is online

Users browsing this forum: No registered users and 1 guest


You cannot post new topics in this forum
You cannot reply to topics in this forum
You cannot edit your posts in this forum
You cannot delete your posts in this forum

Search for:
Яндекс.Метрика
Powered by phpBB © 2000, 2002, 2005, 2007 phpBB Group