\m/ 80's metal \m/

Информационно-аналитический форум "80 см пыли" (In Search We Trust) "У нас никто никуда не спешит"
Me For You - http://me-4u.com
It is currently 19 Jan 2021

All times are UTC + 3 hours

Spoiler
Chat - temporary registration for foreign users (please leave your application here)







Post new topic Reply to topic  [ 11 posts ] 
Author Message
 
PostPosted: 22 Mar 2015 
Генеральный thrasher
User avatar
Joined: 03 Oct 2008
Posts: 3751
Lоcаtion: Ханты-Мансийский АО
Age: 45
Name: Сергей
Image

Year:1992 (2012 Remastered)
Style:Thrash Metal
Country:U.S.A.
Audio:Flac+Cue+Log+Scans
Size:466Mb
Source:my CD
Label:Battle Cry Records
Catalog ID:BC 037

Tracklist:
01. Truth Or Dare 03:36
02. The Worst Is Yet To Come 04:10
03. Bracing The Fall 03:54
04. Perfect Peace 03:32
05. Fool's Paradise 05:03
06. Freakboy 03:49
07. New World 02:53
08. What Are You Looking At? 04:55
09. Never Now, Never Will 04:17
10. DSM 01:11
11. Hazardous (To Your Health) 04:39
Bonus Tracks:
12. Crackdown 04:02
13. The Worst Is Yet To Come 04:09
14. Fool's Paradise 05:05
15. What Are You Looking At? 04:53

"Cue"
REM GENRE "Thrash Metal"
REM DATE 2012
REM DISCID B60E1D0F
REM COMMENT "ExactAudioCopy v0.99pb5"
PERFORMER "Cold Steel"
TITLE "Freakboy [Remastered]"
FILE "Cold Steel - Freakboy [Remastered].flac" WAVE
TRACK 01 AUDIO
TITLE "Truth Or Dare"
PERFORMER "Cold Steel"
INDEX 01 00:00:00
TRACK 02 AUDIO
TITLE "The Worst Is Yet To Come"
PERFORMER "Cold Steel"
INDEX 01 03:36:00
TRACK 03 AUDIO
TITLE "Bracing The Fall"
PERFORMER "Cold Steel"
INDEX 01 07:46:28
TRACK 04 AUDIO
TITLE "Perfect Peace"
PERFORMER "Cold Steel"
INDEX 01 11:40:51
TRACK 05 AUDIO
TITLE "Fools Paradise"
PERFORMER "Cold Steel"
INDEX 01 15:12:52
TRACK 06 AUDIO
TITLE "Freakboy"
PERFORMER "Cold Steel"
INDEX 01 20:15:52
TRACK 07 AUDIO
TITLE "New World"
PERFORMER "Cold Steel"
INDEX 01 24:04:52
TRACK 08 AUDIO
TITLE "What Are You Looking At"
PERFORMER "Cold Steel"
INDEX 01 26:58:06
TRACK 09 AUDIO
TITLE "Never Now Never Will"
PERFORMER "Cold Steel"
INDEX 01 31:53:62
TRACK 10 AUDIO
TITLE "DSM"
PERFORMER "Cold Steel"
INDEX 01 36:10:65
TRACK 11 AUDIO
TITLE "Hazardous (To Your Health)"
PERFORMER "Cold Steel"
INDEX 01 37:22:24
TRACK 12 AUDIO
TITLE "Crackdown [Bonus Track]"
PERFORMER "Cold Steel"
INDEX 01 42:02:09
TRACK 13 AUDIO
TITLE "The Worst Is Yet To Come [Bonus Track]"
PERFORMER "Cold Steel"
INDEX 01 46:04:37
TRACK 14 AUDIO
TITLE "Fool's Paradise [Bonus Track]"
PERFORMER "Cold Steel"
INDEX 01 50:14:36
TRACK 15 AUDIO
TITLE "What Are You Looking At [Bonus Track]"
PERFORMER "Cold Steel"
INDEX 01 55:19:71

"Log"
Exact Audio Copy V0.99 prebeta 5 from 4. May 2009

Отчёт EAC об извлечении, выполненном 16. марта 2015, 20:02

Cold Steel / Freakboy [Remastered]

Дисковод: MATSHITADVD-RAM UJ8A0AS Adapter: 0 ID: 1

Режим чтения : Достоверность
Использование точного потока : Да
Отключение кэша аудио : Да
Использование указателей C2 : Нет

Коррекция смещения при чтении : 102
Способность читать области Lead-in и Lead-out : Нет
Заполнение пропущенных сэмплов тишиной : Да
Удаление блоков с тишиной в начале и конце : Нет
При вычислениях CRC использовались нулевые сэмплы : Да
Интерфейс : Встроенный Win32-интерфейс для Win NT/2000

Выходной формат : Пользовательский кодировщик
Выбранный битрейт : 1024 kBit/s
Качество : Высокий
Добавление ID3-тэга : Нет
Утилита сжатия : C:\Program Files\Exact Audio Copy\FLAC\FLAC.EXE
Дополнительные параметры : -6 -V -T "ARTIST=%a" -T "TITLE=%t" -T "ALBUM=%g" -T "DATE=%y" -T "TRACKNUMBER=%n" -T "GENRE=%m" -T "COMMENT=%e" %s -o %d


TOC извлечённого CD

Трек | Старт | Длительность | Начальный сектор | Конечный сектор
---------------------------------------------------------------------
1 | 0:00.00 | 3:36.00 | 0 | 16199
2 | 3:36.00 | 4:10.28 | 16200 | 34977
3 | 7:46.28 | 3:54.23 | 34978 | 52550
4 | 11:40.51 | 3:32.01 | 52551 | 68451
5 | 15:12.52 | 5:03.00 | 68452 | 91176
6 | 20:15.52 | 3:49.00 | 91177 | 108351
7 | 24:04.52 | 2:53.29 | 108352 | 121355
8 | 26:58.06 | 4:55.56 | 121356 | 143536
9 | 31:53.62 | 4:17.03 | 143537 | 162814
10 | 36:10.65 | 1:11.34 | 162815 | 168173
11 | 37:22.24 | 4:39.60 | 168174 | 189158
12 | 42:02.09 | 4:02.28 | 189159 | 207336
13 | 46:04.37 | 4:09.74 | 207337 | 226085
14 | 50:14.36 | 5:05.35 | 226086 | 248995
15 | 55:19.71 | 4:53.27 | 248996 | 270997


Характеристики диапазона извлечения и сообщения об ошибках

Выбранный диапазон

Имя файла C:\Users\эксперт\Music\Cold Steel - Freakboy [Remastered].wav

Пиковый уровень 98.8 %
Качество диапазона 100.0 %
CRC копии 4734EFE2
Копирование... OK

Ошибок не произошло


AccurateRip: сводка

Трек 1 точность не определена (достоверность 1) [7BEA663A], AccurateRip вернул [0CA595D1]
Трек 2 точность не определена (достоверность 1) [8A275232], AccurateRip вернул [C26BEDC3]
Трек 3 точность не определена (достоверность 1) [5696A003], AccurateRip вернул [C4013DBA]
Трек 4 точность не определена (достоверность 1) [52EDDCBD], AccurateRip вернул [AD570026]
Трек 5 точность не определена (достоверность 1) [AC56DA20], AccurateRip вернул [395EFF1B]
Трек 6 точность не определена (достоверность 1) [AE7B0657], AccurateRip вернул [CE381AFD]
Трек 7 точность не определена (достоверность 1) [AA8A8A3A], AccurateRip вернул [EE8C8256]
Трек 8 точность не определена (достоверность 1) [1FEF5B34], AccurateRip вернул [E0E15499]
Трек 9 точность не определена (достоверность 1) [9AAAF579], AccurateRip вернул [FA4B02E0]
Трек 10 точность не определена (достоверность 1) [E88DE8E0], AccurateRip вернул [472319D1]
Трек 11 точность не определена (достоверность 1) [77DBF4B8], AccurateRip вернул [02BB5969]
Трек 12 точность не определена (достоверность 1) [78B3A59A], AccurateRip вернул [F813E2D8]
Трек 13 точность не определена (достоверность 1) [CD87D5B7], AccurateRip вернул [75ED8CAF]
Трек 14 точность не определена (достоверность 1) [A912C6A8], AccurateRip вернул [F9DBDA96]
Трек 15 точность не определена (достоверность 1) [1FD19387], AccurateRip вернул [CEBD1FE6]

Ни один трек не прошёл проверки на точность
В вашей базе может быть иной вариант штамповки диска

Конец отчёта


Freakboy (Remastered)

Image

Year:2012
Style:Thrash Metal
Country:U.S.A.
Audio:Flac+Cue+Log+Scans
Size:307Mb
Source:my CD
Label:Stormspell Records
Catalog ID:SSR-RWH84

Tracklist:
Dead By Dawn (demo):
01. Crackdown 04:02
02. Pleasant Dreams 03:50
03. Dead by Dawn 03:21
04. Smashed 04:39
Scarred For Life (demo):
05. Scarred for Life 03:21
06. Madness Overthrown 03:43
Perfect Peace (demo):
07. Truth Or Dare? 03:37
08. New World 02:55
09. Perfect Peace 03:30
10. DSM 01:11
11. Hazardous (To Your Health) 04:41

"Cue"
REM GENRE "Thrash Metal"
REM DATE 2012
REM DISCID A4091E0B
REM COMMENT "ExactAudioCopy v0.99pb5"
PERFORMER "Coldsteel"
TITLE "Demo Anthology"
FILE "Coldsteel - Demo Anthology.flac" WAVE
TRACK 01 AUDIO
TITLE "Crackdown"
PERFORMER "Coldsteel"
FLAGS DCP
INDEX 01 00:00:00
TRACK 02 AUDIO
TITLE "Pleasant Dreams"
PERFORMER "Coldsteel"
FLAGS DCP
INDEX 01 04:02:44
TRACK 03 AUDIO
TITLE "Dead By Dawn"
PERFORMER "Coldsteel"
FLAGS DCP
INDEX 01 07:52:52
TRACK 04 AUDIO
TITLE "Smashed"
PERFORMER "Coldsteel"
FLAGS DCP
INDEX 01 11:14:49
TRACK 05 AUDIO
TITLE "Scarred For Life"
PERFORMER "Coldsteel"
FLAGS DCP
INDEX 01 15:53:63
TRACK 06 AUDIO
TITLE "Madness Overthrown"
PERFORMER "Coldsteel"
FLAGS DCP
INDEX 01 19:15:61
TRACK 07 AUDIO
TITLE "Truth or Dare"
PERFORMER "Coldsteel"
FLAGS DCP
INDEX 01 22:58:61
TRACK 08 AUDIO
TITLE "New World"
PERFORMER "Coldsteel"
FLAGS DCP
INDEX 01 26:36:30
TRACK 09 AUDIO
TITLE "Perfect Peace"
PERFORMER "Coldsteel"
FLAGS DCP
INDEX 01 29:31:31
TRACK 10 AUDIO
TITLE "Dsm"
PERFORMER "Coldsteel"
FLAGS DCP
INDEX 01 33:01:51
TRACK 11 AUDIO
TITLE "Hazardous (To Your Health)"
PERFORMER "Coldsteel"
FLAGS DCP
INDEX 01 34:12:74

"Log"
Exact Audio Copy V0.99 prebeta 5 from 4. May 2009

Отчёт EAC об извлечении, выполненном 24. февраля 2013, 15:51

Coldsteel / Demo Anthology

Дисковод: TSSTcorpCDDVDW SH-S202N Adapter: 0 ID: 1

Режим чтения : Достоверность
Использование точного потока : Да
Отключение кэша аудио : Да
Использование указателей C2 : Нет

Коррекция смещения при чтении : 6
Способность читать области Lead-in и Lead-out : Нет
Заполнение пропущенных сэмплов тишиной : Да
Удаление блоков с тишиной в начале и конце : Нет
При вычислениях CRC использовались нулевые сэмплы : Да
Интерфейс : Встроенный Win32-интерфейс для Win NT/2000

Выходной формат : Пользовательский кодировщик
Выбранный битрейт : 768 kBit/s
Качество : Высокий
Добавление ID3-тэга : Нет
Утилита сжатия : C:\Program Files\Exact Audio Copy\FLAC\FLAC.EXE
Дополнительные параметры : -6 -V -T "ARTIST=%a" -T "TITLE=%t" -T "ALBUM=%g" -T "DATE=%y" -T "TRACKNUMBER=%n" -T "GENRE=%m" -T "COMMENT=%e" %s -o %d


TOC извлечённого CD

Трек | Старт | Длительность | Начальный сектор | Конечный сектор
---------------------------------------------------------------------
1 | 0:00.00 | 4:02.44 | 0 | 18193
2 | 4:02.44 | 3:50.08 | 18194 | 35451
3 | 7:52.52 | 3:21.72 | 35452 | 50598
4 | 11:14.49 | 4:39.14 | 50599 | 71537
5 | 15:53.63 | 3:21.73 | 71538 | 86685
6 | 19:15.61 | 3:43.00 | 86686 | 103410
7 | 22:58.61 | 3:37.44 | 103411 | 119729
8 | 26:36.30 | 2:55.01 | 119730 | 132855
9 | 29:31.31 | 3:30.20 | 132856 | 148625
10 | 33:01.51 | 1:11.23 | 148626 | 153973
11 | 34:12.74 | 4:41.72 | 153974 | 175120


Характеристики диапазона извлечения и сообщения об ошибках

Выбранный диапазон

Имя файла E:\Лоси\C\Coldsteel - Demo Anthology.wav

Пиковый уровень 98.8 %
Качество диапазона 100.0 %
CRC копии D887024A
Копирование... OK

Ошибок не произошло


AccurateRip: сводка

Трек 1 нет в базе данных
Трек 2 нет в базе данных
Трек 3 нет в базе данных
Трек 4 нет в базе данных
Трек 5 нет в базе данных
Трек 6 нет в базе данных
Трек 7 нет в базе данных
Трек 8 нет в базе данных
Трек 9 нет в базе данных
Трек 10 нет в базе данных
Трек 11 нет в базе данных

Ни одного трека нет в базе AccurateRip

Конец отчёта


20 Years of NY Thrash:Demo Anthology

Image

Year:2013
Style:Thrash Metal
Country:U.S.A.
Audio:Flac+Cue+Log+Scans
Size:183Mb
Source:my CD
Label:Stormspell Records
Catalog ID:SSR-DL93-CD

Tracklist:
01. America Idle 05:07
02. Blood Secrets 04:22
03. You Lose! 03:21
04. Blink of an Eye 03:47
05. Ashes To Ashes 04:44

"Cue"
REM GENRE "Thrash Metal"
REM DATE 2013
REM DISCID 2D050305
REM COMMENT "ExactAudioCopy v0.99pb5"
PERFORMER "Coldsteel"
TITLE "America Idle"
FILE "Coldsteel - America Idle.flac" WAVE
TRACK 01 AUDIO
TITLE "America Idle"
PERFORMER "Coldsteel"
INDEX 01 00:00:00
TRACK 02 AUDIO
TITLE "Blood Secrets"
PERFORMER "Coldsteel"
INDEX 01 05:07:01
TRACK 03 AUDIO
TITLE "You Lose!"
PERFORMER "Coldsteel"
INDEX 01 09:29:67
TRACK 04 AUDIO
TITLE "Blink of an Eye"
PERFORMER "Coldsteel"
INDEX 01 12:51:58
TRACK 05 AUDIO
TITLE "Ashes To Ashes"
PERFORMER "Coldsteel"
INDEX 01 16:38:71

"Log"
Exact Audio Copy V0.99 prebeta 5 from 4. May 2009

Отчёт EAC об извлечении, выполненном 5. мая 2014, 11:29

Coldsteel / America Idle

Дисковод: MATSHITADVD-RAM UJ8A0AS Adapter: 0 ID: 1

Режим чтения : Достоверность
Использование точного потока : Да
Отключение кэша аудио : Да
Использование указателей C2 : Нет

Коррекция смещения при чтении : 102
Способность читать области Lead-in и Lead-out : Нет
Заполнение пропущенных сэмплов тишиной : Да
Удаление блоков с тишиной в начале и конце : Нет
При вычислениях CRC использовались нулевые сэмплы : Да
Интерфейс : Встроенный Win32-интерфейс для Win NT/2000

Выходной формат : Пользовательский кодировщик
Выбранный битрейт : 1024 kBit/s
Качество : Высокий
Добавление ID3-тэга : Нет
Утилита сжатия : C:\Program Files\Exact Audio Copy\FLAC\FLAC.EXE
Дополнительные параметры : -6 -V -T "ARTIST=%a" -T "TITLE=%t" -T "ALBUM=%g" -T "DATE=%y" -T "TRACKNUMBER=%n" -T "GENRE=%m" -T "COMMENT=%e" %s -o %d


TOC извлечённого CD

Трек | Старт | Длительность | Начальный сектор | Конечный сектор
---------------------------------------------------------------------
1 | 0:00.00 | 5:07.01 | 0 | 23025
2 | 5:07.01 | 4:22.66 | 23026 | 42741
3 | 9:29.67 | 3:21.66 | 42742 | 57882
4 | 12:51.58 | 3:47.13 | 57883 | 74920
5 | 16:38.71 | 4:44.30 | 74921 | 96250


Характеристики диапазона извлечения и сообщения об ошибках

Выбранный диапазон

Имя файла C:\Users\эксперт\Music\Coldsteel - America Idle.wav

Пиковый уровень 97.7 %
Качество диапазона 100.0 %
CRC копии D88F93ED
Копирование... OK

Ошибок не произошло


AccurateRip: сводка

Трек 1 нет в базе данных
Трек 2 нет в базе данных
Трек 3 нет в базе данных
Трек 4 нет в базе данных
Трек 5 нет в базе данных

Ни одного трека нет в базе AccurateRip

Конец отчёта


America Idle


Last edited by thorbeorn on 22 Mar 2015, edited 1 time in total.

Top
 Profile  
 
 
PostPosted: 22 Mar 2015 
Генеральный thrasher
User avatar
Joined: 03 Oct 2008
Posts: 3751
Lоcаtion: Ханты-Мансийский АО
Age: 45
Name: Сергей
Небольшой презент для Толи Privateer.Может ещё кому-нибудь понадобится... :true:


Top
 Profile  
 
 
PostPosted: 22 Mar 2015 
Анатолий
User avatar
Joined: 18 Oct 2008
Posts: 3960
Lоcаtion: Армавир
Age: 43
Name: Анатолий
Серёж, ну ты просто мега крут!!! :true: Самый настоящий подарок для меня сделал! :thanx: Огромное спасибо!!! :true: :thanx: :true: :thanx: :true: :thanx:

О группе узнал конечно же из энциклопедии журанала Rock City - Death City. Спасибо всем тем, кто приложил руку к этому изданию! В те времена был такой информационный голод в нашей глубинке, что подобные издания были для многих таких же как я молодых металлистов как глоток свежего воздуха! Один экземпляр ходил по рукам и переписывался за ночь в ручную.

Первое демо группы очень хвалили из-за ломовых риффов и риффинга в целом. И я соглашусь с этим мнением. "Pleasant Dreams" - пожалуй самая яркая вещь в репертуаре группы. Гитары просто выжигают пространство!!!


Top
 Profile E-mail  
 
 
PostPosted: 22 Mar 2015 
Я набрал 1000 сообщений!
User avatar
Joined: 02 Feb 2009
Posts: 1000
Lоcаtion: из Тулы
Age: 46
Name: Максим
отличная группа
тоже есть пара их работ на виниле
спасибо Серег

_________________
КМА


Top
 Profile  
 
 
PostPosted: 22 Mar 2015 
Генеральный thrasher
User avatar
Joined: 03 Oct 2008
Posts: 3751
Lоcаtion: Ханты-Мансийский АО
Age: 45
Name: Сергей
Сам очень люблю эту команду.Услышал правда её поздновато.В 90-х и понятия о ней не имел.


Top
 Profile  
 
 
PostPosted: 22 Mar 2015 
Прокъмитолист
User avatar
Joined: 12 Aug 2007
Posts: 6786
Lоcаtion: Санктъ-Петербуркъ
Age: 53
Name: Олекъ
заберу все. спасибо, Серёг! :thanx:

_________________
прокъметол - это музыко, от которово есть прок (ы)


Top
 Profile  
 
 
PostPosted: 22 Mar 2015 
Генеральный thrasher
User avatar
Joined: 03 Oct 2008
Posts: 3751
Lоcаtion: Ханты-Мансийский АО
Age: 45
Name: Сергей
О группе узнал конечно же из энциклопедии журанала Rock City - Death City. Спасибо всем тем, кто приложил руку к этому изданию! В те времена был такой информационный голод в нашей глубинке, что подобные издания были для многих таких же как я молодых металлистов как глоток свежего воздуха! Один экземпляр ходил по рукам и переписывался за ночь в ручную.


Толь,а теперь прикинь,как доставались эти журналы у нас Ханты-Мансийском округе в те времена.Любой туалетный листок с информацией о метал-группах шёл на ура.Я,когда ездил с отцом к родственникам в Екатеринбург,скупал все журналы,какие попадались на глаза.И по сей день в моей коллекции хранятся старые выпуски Rock-City и Death-City.В этих журналах хватало неточностей,но всё же они были очень информативны и излагались весьма привлекательным слогом.


Top
 Profile  
 
 
PostPosted: 22 Mar 2015 
Анатолий
User avatar
Joined: 18 Oct 2008
Posts: 3960
Lоcаtion: Армавир
Age: 43
Name: Анатолий
Понимаю... но в этом всё-таки что-то было... уже много об этом говорилось, что и слушали более вкрадчиво и внимательно и конечно запоминали всё более досканально, фактически каждый альбом наизусть, каждую крупинку информации на зубок.

На счёт неточностей... конечно куда же без них, хотя большинство статей, как мне представляется, были всё же просто переведены на русский из иностранных изданий.

А меж тем последний на сегодняшний день релиз группы очень не плох, очень! :true:


Top
 Profile E-mail  
 
 
PostPosted: 22 Mar 2015 
Хиппей (support team)
User avatar
Joined: 30 Jul 2007
Posts: 119809
Lоcаtion: Киев (Kyiv, UA)
Age: 47
Name: Andrey
:thanx:

mirror:

1 - iFolder l Narod l M-Cloud
2 - iFolder l Narod l M-Cloud


Privateer wrote:
На счёт неточностей... конечно куда же без них, хотя большинство статей, как мне представляется, были всё же просто переведены на русский из иностранных изданий.

Ага, тоже тогда подобные мысли посещали.
Ща даже перечитывать те обзоры нет охоты. Зажрался я :pardon:

_________________


Top
 Profile E-mail  
 
 
PostPosted: 23 Mar 2015 
Генеральный thrasher
User avatar
Joined: 03 Oct 2008
Posts: 3751
Lоcаtion: Ханты-Мансийский АО
Age: 45
Name: Сергей
А меж тем последний на сегодняшний день релиз группы очень не плох, очень! :true:


Как по мне - так будто и не было огромного перерыва в их карьере.Отличный миник у них получился.Пропустили ребята времена,когда трэшеры заигрывали с гранджами,грувами и прочей нечистью...вот и забацали нормальные вещи.


Top
 Profile  
 
 
PostPosted: 07 May 2015 
ТрэшЭрос
User avatar
Joined: 18 Jul 2011
Posts: 2307
Lоcаtion: Гулькевичи
Age: 46
Name: Александр
thorbeorn, :thanx: за ДЕМОнизацию! :true:

_________________
Thrash no trash!!!


Top
 Profile E-mail  
 
Display posts from previous:  Sort by  
Post new topic Reply to topic  [ 11 posts ] 

All times are UTC + 3 hours


Who is online

Users browsing this forum: No registered users and 1 guest


You cannot post new topics in this forum
You cannot reply to topics in this forum
You cannot edit your posts in this forum
You cannot delete your posts in this forum
You cannot post attachments in this forum

Search for:
Яндекс.Метрика
Powered by phpBB © 2000, 2002, 2005, 2007 phpBB Group